.
Авторизация | Регистрация
Хочешь лучшие торренты? Добавь свой email!
Добавить

Торрент скачать бесплатно

  • support: webmaster@btracker.club
» » Города Беларуси (2000) DVDRip торрент скачать бесплатно


    Города Беларуси (2000) DVDRip торрент скачать бесплатно

    Опубликовал: fregat | Дата: 31-10-2018, 05:00 | .torrent скачали: 0

    Города Беларуси (2000) DVDRipПроизводство: Беларусь
    Жанр: Документальный, История
    Участники: Галина Нагаева, Станислав Гайдук

    Описание

    Познавательные фильмы о городах и местечках Беларуси: Минске, Мире, Несвиже, Новогрудке, Гродно, Бресте, Каменце, Коложской церкви.
    Продолжительность: 00: 50: 47
    Качество видео: DVDRip
    Перевод: Не требуется (нет диалогов и комментариев)
    Видео: Xvid, 704x528, ~1430 Kbps
    Аудио: MP3, 2 ch, 128 Kbps

    General
    Complete name : G: документалкаГорода Беларуси.avi
    Format : AVI
    Format/Info : Audio Video Interleave
    File size : 569 MiB
    Duration : 50mn 47s
    Overall bit rate : 1 568 Kbps
    Writing application : VirtualDubMod 1.5.10.3 |www.virtualdub-fr.org|| (build 2550/release)
    Writing library : VirtualDubMod build 2550/release
    Video
    ID : 0
    Format : MPEG-4 Visual
    Format profile : Advanced Simple@L5
    Format settings, BVOP : 2
    Format settings, QPel : No
    Format settings, GMC : No warppoints
    Format settings, Matrix : Default (MPEG)
    Codec ID : XVID
    Codec ID/Hint : XviD
    Duration : 50mn 47s
    Bit rate : 1 430 Kbps
    Width : 704 pixels
    Height : 528 pixels
    Display aspect ratio : 4: 3
    Frame rate : 25.000 fps
    Color space : YUV
    Chroma subsampling : 4: 2: 0
    Bit depth : 8 bits
    Scan type : Progressive
    Compression mode : Lossy
    Bits/(Pixel*Frame) : 0.154
    Stream size : 519 MiB (91%)
    Writing library : XviD 64
    Audio
    ID : 1
    Format : MPEG Audio
    Format version : Version 1
    Format profile : Layer 3
    Codec ID : 55
    Codec ID/Hint : MP3
    Duration : 50mn 47s
    Bit rate mode : Constant
    Bit rate : 128 Kbps
    Channel(s) : 2 channels
    Sampling rate : 48.0 KHz
    Compression mode : Lossy
    Stream size : 46.5 MiB (8%)
    Alignment : Aligned on interleaves
    Interleave, duration : 40 ms (1.00 video frame)
    Interleave, preload duration : 504 ms
    Writing library : LAME3.98r
    Encoding settings : -m s -V 4 -q 2 -lowpass 17 -b 128

    Скриншоты для ознакомления



    Все одноименные релизы в Клубе
    Время раздачи: с 18: 00 до 23: 00 (до появления первых 3-5 скачавших)


    Города Беларуси (2000) DVDRip
    Рейтинг →
     (голосов: 1, оценка 5/5, голосовать можно 1 раз )

    Другие торренты по теме:

  • NG: История города пиратов / История города пиратов (2011) SATRip
  • Города подземелья / Cities of the Underworld (2007-2009) SATRip
  • 2Gis Все города 3.14.8 (сентябрь 2014) Portable by Punsh [Multi / Ru]
  • Mekakucity Actors | Mekaku City Actors | Актёры города Мэкаку [2014, TV, 6 из 12 эп.] BDrip 1080p raw
  • [Фотография] Города и всё, что с ними связано. Фотографии пользователей NoNaMe Club
  • Сказки Чёрного Города - Том 1-2 (2014) [MP3|320 кб / с]<Punk-Rock. Horror-Punk> скачать через торрент бесплатно
  • Следствие вели... с Леонидом Каневским. Хозяин города. Выпуск 282 (01.11.2014) SATRip скачать через торрент бесплатно
  • 2Gis Все города 3.14.9 (ноябрь 2014) Portable by Punsh [Multi / Ru] скачать через торрент бесплатно


    • Комментарии (0):

      Информация

      Информация

        Посетители, находящиеся в группе Гости, не могут оставлять комментарии в данной новости.

        ↓ Меню




        ↓ Опрос

        Вы добавили сайт в закладки?
        Да
        Нет


        Top 10 за месяц (Передачи)

        Революция. Западня для России (2017) HDTVRip [H.264 / 720p-LQ] (фильм 1)

        (скачиваний: 77)
        Осторожно, Задов! Или похождения прапорщика (2004) DVDRip [H.264] (29 серий из 29)

        (скачиваний: 55)
        Мир наизнанку Бразилия / Світ навиворіт (2018) WEB-DLRip [H.264 / 1080p-LQ] (Сезон 10, серии 1-2 из ... ) Обновляемая

        (скачиваний: 38)
        Революция. Западня для России (2018) (Сезон 2, Серия 1 из 2) DVB [H.264 / 1080i-LQ] (Обновляемая)

        (скачиваний: 31)
        Гай Юлий Орловский | Цикл «Юджин - повелитель времени» [9 книг. Обновляемая] (2015-2017) [FB2]

        (скачиваний: 31)
        Александр Мазин | Вождь викингов (2016) [MP3]

        (скачиваний: 27)
        Орел и решка. Морской сезон. По морям 2 (2018) WEB-DLRip (сезон 18, выпуск 1-3 из 20) (обновляемая)

        (скачиваний: 24)
        6 Кадров (2006-2015) SATRip / WEBRip (сезоны 1-8, выпуски 1-321 из) + Дополнения

        (скачиваний: 23)
        Queen: Дни нашей жизни / Queen: Days of Our Lives (2011) DVB (Серии 1-2 из 2)

        (скачиваний: 23)
        Уральские пельмени. 50 оттенков загорелого (2017.10.27) WEB-DL [H.264 / 720p-LQ]

        (скачиваний: 22)