.
Авторизация | Регистрация
Хочешь лучшие торренты? Добавь свой email!
Добавить

Торрент скачать бесплатно

  • support: webmaster@btracker.club
» » Discovery: Быстрые и громкие / Fast N Loud (2017) HDTVRip [H.264 / 1080i-LQ] (Сезон 13, Серии 1-6 из 6 +Bonus) торрент скачать бесплатно


    Discovery: Быстрые и громкие / Fast N Loud (2017) HDTVRip [H.264 / 1080i-LQ] (Сезон 13, Серии 1-6 из 6 +Bonus) торрент скачать бесплатно

    Опубликовал: fregat | Дата: 31-10-2018, 05:00 | .torrent скачали: 0

    Discovery: Быстрые и громкие / Fast N Loud (2017) HDTVRip [H.264 / 1080i-LQ] (Сезон 13, Серии 1-6 из 6 +Bonus)Телекомпания: Discovery
    Жанр: Документальный, автомобили
    Участники: К.С. Мэтью, Ричард Роулингс, Том Смит, Сью Мартин, Берт Рейнолдс

    Описание

    Ричард и его команда выходят на новый уровень в гараже, заявляя, что магазин все еще сильно развит. Ричард и его команда ищут забытых старинных автомобилей, чтобы покупать и восстанавливать, также демонстрируют свои навыки и работают над созданием впечатляющих горячих автомобилей.

    Релиз от: ROLEX-SABAN
    Продолжительность: 00: 44: 08
    Качество видео: HDTVRip
    Перевод: Одноголосый закадровый, профессиональный
    Видео: AVC/H.264, 1920x1080, ~6300 Kbps
    Аудио: AC3, 6 ch, 384 kb/s

    New Era.mkv
    Format : Matroska
    Format version : Version 2
    File size : 2.20 GiB
    Duration : 43 min 21 s
    Overall bit rate : 7 265 kb/s
    Writing application : Lavf54.63.104
    Writing library : Lavf54.63.104
    Video
    ID : 1
    Format : AVC
    Format/Info : Advanced Video Codec
    Format profile : High@L4
    Format settings : CABAC/4 Ref Frames
    Format settings, CABAC : Yes
    Format settings, ReFrames : 4 frames
    Codec ID : V_MPEG4/ISO/AVC
    Duration : 43 min 21 s
    Bit rate : 6 352 kb/s
    Width : 1 920 pixels
    Height : 1 080 pixels
    Display aspect ratio : 16: 9
    Frame rate mode : Constant
    Frame rate : 25.000 FPS
    Standard : Component
    Color space : YUV
    Chroma subsampling : 4: 2: 0
    Bit depth : 8 bits
    Scan type : Interlaced
    Scan type, store method : Separated fields
    Scan order : Top Field First
    Bits/(Pixel*Frame) : 0.123
    Stream size : 1.92 GiB (87%)
    Default : No
    Forced : No
    Color range : Limited
    Color primaries : BT.709
    Transfer characteristics : BT.709
    Matrix coefficients : BT.709
    Audio #1
    ID : 2
    Format : AC-3
    Format/Info : Audio Coding 3
    Commercial name : Dolby Digital
    Codec ID : A_AC3
    Duration : 43 min 21 s
    Bit rate mode : Constant
    Bit rate : 384 kb/s
    Channel(s) : 6 channels
    Channel layout : L R C LFE Ls Rs
    Sampling rate : 48.0 kHz
    Frame rate : 31.250 FPS (1536 SPF)
    Bit depth : 16 bits
    Compression mode : Lossy
    Stream size : 119 MiB (5%)
    Language : Russian
    Service kind : Complete Main
    Default : Yes
    Forced : No
    Audio #2
    ID : 3
    Format : AC-3
    Format/Info : Audio Coding 3
    Commercial name : Dolby Digital
    Codec ID : A_AC3
    Duration : 43 min 21 s
    Bit rate mode : Constant
    Bit rate : 384 kb/s
    Channel(s) : 6 channels
    Channel layout : L R C LFE Ls Rs
    Sampling rate : 48.0 kHz
    Frame rate : 31.250 FPS (1536 SPF)
    Bit depth : 16 bits
    Compression mode : Lossy
    Stream size : 119 MiB (5%)
    Language : English
    Service kind : Complete Main
    Default : No
    Forced : No

    Нет бонусной серии Special - All About the Bad Bass Епизод 120

    Скриншоты для ознакомления



    Все одноименные релизы в Клубе
    Время раздачи: 24/7 (до появления первых 3-5 скачавших)


    Discovery: Быстрые и громкие/Fast N Loud (2017) HDTVRip [H.264/1080i-LQ] (Сезон 13, Серии 1-6 из 6 +Bonus)
    Рейтинг →
     (голосов: 1, оценка 3/5, голосовать можно 1 раз )

    Другие торренты по теме:

  • Discovery: Быстрые и громкие / Fast N Loud (2012) HDTVRip (Сезон 1, Серия 11)
  • Discovery: Быстрые и громкие / Fast N Loud (2012) HDTVRip (Сезон 1, Серия 12)
  • Discovery: Быстрые и громкие / Fast N Loud (2012) HDTVRip (Сезон 1, Серия 10)
  • Discovery: Быстрые и громкие / Fast N Loud (2012) HDTVRip (Сезон 1, Серия 8)
  • Discovery: Быстрые и громкие / Fast N Loud (2012) HDTVRip (Сезон 1, Серия 7)
  • Discovery: Быстрые и громкие / Fast N Loud (2012) HDTVRip (Сезон 1, Серия 5)
  • Discovery: Быстрые и громкие / Fast N Loud (2012) HDTVRip (Сезон 1, Серия 6)
  • Discovery: Быстрые и громкие / Fast N Loud (2012) HDTVRip (Сезон 1, Серия 4)


    • Комментарии (0):

      Информация

      Информация

        Посетители, находящиеся в группе Гости, не могут оставлять комментарии в данной новости.

        ↓ Меню




        ↓ Опрос

        Вы добавили сайт в закладки?
        Да
        Нет


        Top 10 за месяц (Передачи)

        Революция. Западня для России (2017) HDTVRip [H.264 / 720p-LQ] (фильм 1)

        (скачиваний: 74)
        Осторожно, Задов! Или похождения прапорщика (2004) DVDRip [H.264] (29 серий из 29)

        (скачиваний: 47)
        Революция. Западня для России (2018) (Сезон 2, Серия 1 из 2) DVB [H.264 / 1080i-LQ] (Обновляемая)

        (скачиваний: 30)
        Мир наизнанку Бразилия / Світ навиворіт (2018) WEB-DLRip [H.264 / 1080p-LQ] (Сезон 10, серии 1-2 из ... ) Обновляемая

        (скачиваний: 30)
        Александр Мазин | Вождь викингов (2016) [MP3]

        (скачиваний: 27)
        Гай Юлий Орловский | Цикл «Юджин - повелитель времени» [9 книг. Обновляемая] (2015-2017) [FB2]

        (скачиваний: 26)
        Футбол. Лига Европы УЕФА 2018-2019. Группа G. 3-й тур. Рейнджерс (Шотландия) – Спартак (Россия) (25.10.2018) WEB-DL [H.264 / 720p-LQ]

        (скачиваний: 21)
        Queen: Дни нашей жизни / Queen: Days of Our Lives (2011) DVB (Серии 1-2 из 2)

        (скачиваний: 19)
        Орел и решка. Морской сезон. По морям 2 (2018) WEB-DLRip (сезон 18, выпуск 1-3 из 20) (обновляемая)

        (скачиваний: 16)
        6 Кадров (2006-2015) SATRip / WEBRip (сезоны 1-8, выпуски 1-321 из) + Дополнения

        (скачиваний: 15)