.
Авторизация | Регистрация
Хочешь лучшие торренты? Добавь свой email!
Добавить

Торрент скачать бесплатно

  • support: webmaster@btracker.club
» » Смешанные единоборства. UFC Fight Night 138: Main Card. Oezdemir vs. Smith (28.10.18) WEB-DLRip [H.264 / 720p-LQ] [EN] торрент скачать бесплатно


    Смешанные единоборства. UFC Fight Night 138: Main Card. Oezdemir vs. Smith (28.10.18) WEB-DLRip [H.264 / 720p-LQ] [EN] торрент скачать бесплатно

    Опубликовал: fregat | Дата: 30-10-2018, 05:00 | .torrent скачали: 0

    Смешанные единоборства. UFC Fight Night 138: Main Card. Oezdemir vs. Smith (28.10.18) WEB-DLRip [H.264 / 720p-LQ] [EN]Телекомпания: UFC Fight Pass
    Жанр: Спорт, Единоборства
    Участники: Волкан Оездемир – Энтони Смит, Артем Лобов – Майкл Джонсон, Миша Циркунов – Патрик Камминс, Андре Сухамтат – Джонатан Мартинез, Джиан Вилланте – Эд Херман, Корт МакГи – Алекс Гарсия

    Описание
    Основной кард турнира UFC Fight Night Moncton, главным событием которого стал поединок в полутяжелом весе между Волканом Оездемиром и Энтони Смитом.
    Релиз от: Fight-BB
    Продолжительность: 02: 47: 35
    Качество видео: WEB-DLRip
    Перевод: отсутствует
    Язык озвучки: Английский
    Субтитры: отсутствуют
    Видео: AVC/H.264, 1280x720 (16: 9), ~4284 Kbps, 29.97 fps
    Аудио: AAC, 44.1 KHz, 2 ch, 126 Kbps

    General
    Unique ID : 173905030995515999744694993488886708029 (0x82D4E402C71C30596C7F1A8DB24D373D)
    Complete name : E: UFCUFC.Fight.Night.138.Main.Card.720p.Fight-BB.mkv
    Format : Matroska
    Format version : Version 4/Version 2
    File size : 5.16 GiB
    Duration : 2 h 47 min
    Overall bit rate : 4 412 kb/s
    Writing application : mkvmerge v23.0.0 ('The Bride Said No') 64-bit
    Writing library : libebml v1.3.6 + libmatroska v1.4.9
    Video
    ID : 1
    Format : AVC
    Format/Info : Advanced Video Codec
    Format profile : Main@L4
    Format settings : CABAC/3 Ref Frames
    Format settings, CABAC : Yes
    Format settings, ReFrames : 3 frames
    Codec ID : V_MPEG4/ISO/AVC
    Duration : 2 h 47 min
    Bit rate : 4 284 kb/s
    Width : 1 280 pixels
    Height : 720 pixels
    Display aspect ratio : 16: 9
    Frame rate mode : Constant
    Frame rate : 29.970 (29970/1000) FPS
    Color space : YUV
    Chroma subsampling : 4: 2: 0
    Bit depth : 8 bits
    Scan type : Progressive
    Bits/(Pixel*Frame) : 0.155
    Stream size : 5.01 GiB (97%)
    Default : Yes
    Forced : No
    Audio
    ID : 2
    Format : AAC
    Format/Info : Advanced Audio Codec
    Format profile : LC
    Codec ID : A_AAC-2
    Duration : 2 h 47 min
    Bit rate : 126 kb/s
    Channel(s) : 2 channels
    Channel positions : Front: L R
    Sampling rate : 44.1 kHz
    Frame rate : 43.066 FPS (1024 SPF)
    Compression mode : Lossy
    Delay relative to video : -33 ms
    Stream size : 151 MiB (3%)
    Default : Yes
    Forced : No

    Скриншоты для ознакомления



    Все одноименные релизы в Клубе
    Время раздачи: 24/7 (до появления первых 3-5 скачавших)


    Смешанные единоборства. UFC Fight Night 138: Main Card. Oezdemir vs. Smith (28.10.18) WEB-DLRip [H.264/720p-LQ] [EN]
    Рейтинг →
     (голосов: 1, оценка 3/5, голосовать можно 1 раз )

    Другие торренты по теме:

  • Смешанные единоборства. Rizin FF 1. (29.12.2015) HDTVRip [H.264 / 720p-LQ] скачать через торрент бесплатно
  • Смешанные единоборства. Rizin FF 1. (31.12.2015) HDTVRip [H.264 / 720p-LQ] скачать через торрент бесплатно
  • Смешанные единоборства. UFC on Fox 18 / Johnson vs Bader + Main Card. (30.01.2016) HDTVRip [H.264 / 720p-LQ]
  • Смешанные единоборства. UFC Fight Night 82: Hendricks vs. Thompson. (06.02.2016) WEB-DL [H.264 / 720p-LQ] [EN]
  • Смешанные единоборства. UFC Fight Night 83: Cowboy vs. Cowboy. (21.02.2016) WEB-DL [H.264 / 720p-LQ] [EN]
  • Смешанные единоборства. Bellator 150. Kongo vs. Queiroz. Main card. (26.02.2016) HDTVRip [H.264 / 720p-LQ]
  • Смешанные единоборства. Fight Nights Global 44. (26.02.2016) HDTVRip [H.264 / 720p-LQ]
  • Смешанные единоборства. UFC Fight Night 84: Silva vs. Bisping. (27.02.2016) WEB-DL [H.264 / 720p-LQ] [EN]


    • Комментарии (0):

      Информация

      Информация

        Посетители, находящиеся в группе Гости, не могут оставлять комментарии в данной новости.

        ↓ Меню




        ↓ Опрос

        Вы добавили сайт в закладки?
        Да
        Нет


        Top 10 за месяц (Передачи)

        Революция. Западня для России (2017) HDTVRip [H.264 / 720p-LQ] (фильм 1)

        (скачиваний: 77)
        Осторожно, Задов! Или похождения прапорщика (2004) DVDRip [H.264] (29 серий из 29)

        (скачиваний: 60)
        Мир наизнанку Бразилия / Світ навиворіт (2018) WEB-DLRip [H.264 / 1080p-LQ] (Сезон 10, серии 1-2 из ... ) Обновляемая

        (скачиваний: 44)
        Гай Юлий Орловский | Цикл «Юджин - повелитель времени» [9 книг. Обновляемая] (2015-2017) [FB2]

        (скачиваний: 32)
        Революция. Западня для России (2018) (Сезон 2, Серия 1 из 2) DVB [H.264 / 1080i-LQ] (Обновляемая)

        (скачиваний: 31)
        Александр Мазин | Вождь викингов (2016) [MP3]

        (скачиваний: 27)
        Орел и решка. Морской сезон. По морям 2 (2018) WEB-DLRip (сезон 18, выпуск 1-3 из 20) (обновляемая)

        (скачиваний: 25)
        6 Кадров (2006-2015) SATRip / WEBRip (сезоны 1-8, выпуски 1-321 из) + Дополнения

        (скачиваний: 24)
        Queen: Дни нашей жизни / Queen: Days of Our Lives (2011) DVB (Серии 1-2 из 2)

        (скачиваний: 23)
        Уральские пельмени. 50 оттенков загорелого (2017.10.27) WEB-DL [H.264 / 720p-LQ]

        (скачиваний: 22)