.
Авторизация | Регистрация
Хочешь лучшие торренты? Добавь свой email!
Добавить

Торрент скачать бесплатно

  • support: webmaster@btracker.club
» » Импровизация / Камеди Клаб / Комеди Клаб / Comedy Club (2018) WEB-DL [H.264 / 720p-LQ] (сезон 5, выпуск 1-10 из ) (обновляемая) торрент скачать бесплатно


    Импровизация / Камеди Клаб / Комеди Клаб / Comedy Club (2018) WEB-DL [H.264 / 720p-LQ] (сезон 5, выпуск 1-10 из ) (обновляемая) торрент скачать бесплатно

    Опубликовал: fregat | Дата: 30-10-2018, 05:00 | .torrent скачали: 0

    Импровизация / Камеди Клаб / Комеди Клаб / Comedy Club (2018) WEB-DL [H.264 / 720p-LQ] (сезон 5, выпуск 1-10 из ) (обновляемая)Телекомпания: Россия, ТНТ, Comedy Club Production
    Жанр: ТВ-шоу
    Ведущий: Павел Воля
    Участники: Арсений Попов, Дмитрий Позов, Сергей Матвиенко, Антон Шастун

    Описание

    Импровизация — это новое непредсказуемое комедийное шоу от Comedy Club Production. В нём нет сценария и всё, происходящее на сцене, придумывается участниками на ходу. Под управлением ведущего Павла Воли четыре комика и один звездный гость оказываются в самых странных ситуациях — и выбираются из них с юмором. Прежде, чем попасть на экран, четыре участника Импровизации (Арсений Попов, Дима Позов, Сергей Матвиенко и Антон Шастун) несколько лет совершенствовали этот формат на клубных вечеринках. Каждый выпуск шоу разбит на части, в которых действуют свои правила: например, в одной комики должны разговаривать только вопросами, в другой — ходят с завязанными глазами по комнате с мышеловками, в третьей — шутят с электрошокерами на руках, которые бьют их током. В каждом шоу к комикам присоединяется приглашенная звезда. Импровизация — вершина комедийного спорта, уважаемый жанр, которым мечтаю заниматься многие комики, но который требует постоянной практики. Участники Импровизации посвятили этому жанру несколько лет — и стали настоящими мастерами.
    Продолжительность: ~ 00: 48: 00 выпуск
    Качество видео: WEB-DL
    Видео: AVC/H.264, 1280х720, ~ 3500 Kbps
    Аудио: AC3, 2 ch, 192 Kbps

    General
    Unique ID : 180463558132859132103503977841479247123 (0x87C4045D3FDD560E588F6D2CB6C5E513)
    Complete name : F: ТЕЛЕПЕРЕДАЧИИМПРОВИЗАЦИЯImprovizacija.s05.2018.WEB-DL.(720p)Improvizacija.S05E01.2018.WEB-DL.(720p).mkv
    Format : Matroska
    Format version : Version 4/Version 2
    File size : 1.25 GiB
    Duration : 48 min 32 s
    Overall bit rate : 3 680 kb/s
    Writing application : Lavf57.25.100
    Writing library : Lavf57.25.100
    Video
    ID : 1
    Format : AVC
    Format/Info : Advanced Video Codec
    Format profile : High@L3.1
    Format settings : CABAC/1 Ref Frames
    Format settings, CABAC : Yes
    Format settings, ReFrames : 1 frame
    Format settings, GOP : M=1, N=12
    Codec ID : V_MPEG4/ISO/AVC
    Duration : 48 min 31 s
    Bit rate : 3 414 kb/s
    Width : 1 280 pixels
    Height : 720 pixels
    Display aspect ratio : 16: 9
    Frame rate mode : Constant
    Frame rate : 25.000 FPS
    Standard : Component
    Color space : YUV
    Chroma subsampling : 4: 2: 0
    Bit depth : 8 bits
    Scan type : Progressive
    Bits/(Pixel*Frame) : 0.148
    Stream size : 1.16 GiB (93%)
    Default : Yes
    Forced : No
    Color range : Limited
    Audio
    ID : 2
    Format : AC-3
    Format/Info : Audio Coding 3
    Codec ID : A_AC3
    Duration : 48 min 32 s
    Bit rate mode : Constant
    Bit rate : 192 kb/s
    Channel(s) : 2 channels
    Channel positions : Front: L R
    Sampling rate : 44.1 kHz
    Frame rate : 28.711 FPS (1536 SPF)
    Bit depth : 16 bits
    Compression mode : Lossy
    Delay relative to video : -6 ms
    Stream size : 66.7 MiB (5%)
    Writing library : Lavc57.24.102 ac3
    Service kind : Complete Main
    Default : Yes
    Forced : No


    Импровизация/Камеди Клаб/Комеди Клаб/Comedy Club (2018) WEB-DL [H.264/720p-LQ] (сезон 5, выпуск 1-10 из ) (обновляемая)
    Рейтинг →
     (голосов: 1, оценка 3/5, голосовать можно 1 раз )

    Другие торренты по теме:

  • Импровизация / Камеди Клаб / Комеди Клаб / Comedy Club (05.02.2016) SATRip (выпуск 1)
  • Импровизация / Камеди Клаб / Комеди Клаб / Comedy Club (05.02.2016) WEB-DL [H.264 / 720-LQ] (выпуск 1)
  • Импровизация / Камеди Клаб / Комеди Клаб / Comedy Club (12.02.2016) SATRip (выпуск 2)
  • Импровизация / Камеди Клаб / Комеди Клаб / Comedy Club (12.02.2016) WEB-DL [H.264 / 720-LQ] (выпуск 2)
  • Импровизация / Камеди Клаб / Комеди Клаб / Comedy Club (20.02.2016) SATRip (выпуск 3)
  • Импровизация / Камеди Клаб / Комеди Клаб / Comedy Club (26.02.2016) WEB-DL [H.264 / 720-LQ] (выпуск 4)
  • Импровизация / Камеди Клаб / Комеди Клаб / Comedy Club (26.02.2016) SATRip (выпуск 4)
  • Импровизация / Камеди Клаб / Комеди Клаб / Comedy Club (04.03.2016) SATRip (выпуск 5)


    • Комментарии (0):

      Информация

      Информация

        Посетители, находящиеся в группе Гости, не могут оставлять комментарии в данной новости.

        ↓ Меню




        ↓ Опрос

        Вы добавили сайт в закладки?
        Да
        Нет


        Top 10 за месяц (Передачи)

        Революция. Западня для России (2017) HDTVRip [H.264 / 720p-LQ] (фильм 1)

        (скачиваний: 74)
        Осторожно, Задов! Или похождения прапорщика (2004) DVDRip [H.264] (29 серий из 29)

        (скачиваний: 43)
        Революция. Западня для России (2018) (Сезон 2, Серия 1 из 2) DVB [H.264 / 1080i-LQ] (Обновляемая)

        (скачиваний: 29)
        Александр Мазин | Вождь викингов (2016) [MP3]

        (скачиваний: 27)
        Мир наизнанку Бразилия / Світ навиворіт (2018) WEB-DLRip [H.264 / 1080p-LQ] (Сезон 10, серии 1-2 из ... ) Обновляемая

        (скачиваний: 22)
        Футбол. Лига Европы УЕФА 2018-2019. Группа G. 3-й тур. Рейнджерс (Шотландия) – Спартак (Россия) (25.10.2018) WEB-DL [H.264 / 720p-LQ]

        (скачиваний: 21)
        Queen: Дни нашей жизни / Queen: Days of Our Lives (2011) DVB (Серии 1-2 из 2)

        (скачиваний: 19)
        Гай Юлий Орловский | Цикл «Юджин - повелитель времени» [9 книг. Обновляемая] (2015-2017) [FB2]

        (скачиваний: 19)
        Орел и решка. Морской сезон. По морям 2 (2018) WEB-DLRip (сезон 18, выпуск 1-3 из 20) (обновляемая)

        (скачиваний: 13)
        Дженнифер Макмахон | Обещай, что никому не скажешь (2016) [FB2]

        (скачиваний: 13)