.
Авторизация | Регистрация
Хочешь лучшие торренты? Добавь свой email!
Добавить

Торрент скачать бесплатно

  • support: webmaster@btracker.club
» » Дзюдо. Чемпионат мира 2018. Баку (Азербайджан). День 8-й. Смешанные командные соревнования. Финалы (2018) WEB-DLRip торрент скачать бесплатно


    Дзюдо. Чемпионат мира 2018. Баку (Азербайджан). День 8-й. Смешанные командные соревнования. Финалы (2018) WEB-DLRip торрент скачать бесплатно

    Опубликовал: fregat | Дата: 30-10-2018, 05:00 | .torrent скачали: 0

    Дзюдо. Чемпионат мира 2018. Баку (Азербайджан). День 8-й. Смешанные командные соревнования. Финалы (2018) WEB-DLRipТелекомпания: Матч! Боец
    Жанр: Спорт
    Комментатор: Владимир Иваницкий

    Описание

    32-й чемпионат мира по дзюдо проходил с 20 по 27 сентября 2018 года
    День 8-й. Финалы
    Смешанные командные соревнования
    Стадион: Национальная Гимнастическая Арена (Баку, Азербайджан)
    Продолжительность: 01: 49: 25
    Качество видео: WEB-DLRip
    Язык озвучки: Русский
    Субтитры: отсутствуют
    Видео: AVC/H.264, 1024x576 (16: 9), ~2767 Kbps
    Аудио: AAC, 2 ch, 44, 1 kHz, 128 Kbps

    Общее
    Уникальный идентификатор : 316735827783191901803953132842136295971 (0xEE4919FD22B6F583522450FB2E16DA23)
    Полное имя : F: SPORTБокс, единаборстваЃ8 World Judo ChampionshipsJudo WCh 2018.Baku (AZE).Day 8. Mixed team Finals_576p.mkv
    Формат : Matroska
    Версия формата : Version 4/Version 2
    Размер файла : 2, 21 Гбайт
    Продолжительность : 1 ч. 49 м.
    Общий поток : 2898 Кбит/сек
    Дата кодирования : UTC 2018-10-29 16: 09: 20
    Программа кодирования : mkvmerge v28.2.0 ('The Awakening') 32-bit
    Библиотека кодирования : libebml v1.3.6 + libmatroska v1.4.9
    Видео
    Идентификатор : 1
    Формат : AVC
    Формат/Информация : Advanced Video Codec
    Профиль формата : Baseline@L3.1
    Настройки формата : 3 Ref Frames
    Параметр CABAC формата : Нет
    Параметр RefFrames формата : 3 кадра
    Параметр GOP формата : M=1, N=25
    Идентификатор кодека : V_MPEG4/ISO/AVC
    Продолжительность : 1 ч. 49 м.
    Битрейт : 2767 Кбит/сек
    Ширина : 1024 пикселя
    Высота : 576 пикселей
    Соотношение сторон : 16: 9
    Режим частоты кадров : Постоянный
    Частота кадров : 25, 000 кадров/сек
    Цветовое пространство : YUV
    Субдискретизация насыщенности : 4: 2: 0
    Битовая глубина : 8 бит
    Тип развёртки : Прогрессивная
    Бит/(Пиксели*Кадры) : 0.188
    Размер потока : 2, 12 Гбайт (95%)
    Default : Да
    Forced : Нет
    Аудио
    Идентификатор : 2
    Формат : AAC
    Формат/Информация : Advanced Audio Codec
    Профиль формата : LC
    Идентификатор кодека : A_AAC-2
    Продолжительность : 1 ч. 49 м.
    Битрейт : 128 Кбит/сек
    Каналы : 2 канала
    Расположение каналов : Front: L R
    Частота : 44, 1 КГц
    Частота кадров : 43, 066 кадра/сек (1024 SPF)
    Метод сжатия : С потерями
    Размер потока : 100 Мбайт (4%)
    Язык : Russian
    Default : Да
    Forced : Нет

    Скриншоты для ознакомления



    Все одноименные релизы в Клубе
    Время раздачи: 24/7 (около 1 месяца)


    Дзюдо. Чемпионат мира 2018. Баку (Азербайджан). День 8-й. Смешанные командные соревнования. Финалы (2018) WEB-DLRip
    Рейтинг →
     (голосов: 1, оценка 3/5, голосовать можно 1 раз )

    Другие торренты по теме:

  • Дзюдо. Чемпионат мира 2018. Баку (Азербайджан). День 7-й. Мужчины свыше 100 кг, Женщины свыше 78 кг. Финалы (2018) WEB-DLRip
  • Дзюдо. Чемпионат мира 2018. Баку (Азербайджан). День 6-й. Мужчины до 100 кг, Женщины до 78 кг. Финалы (2018) WEB-DLRip
  • Дзюдо. Чемпионат мира 2018. Баку (Азербайджан). День 5-й. Мужчины до 90 кг, Женщины до 70 кг. Финалы (2018) WEB-DLRip
  • Дзюдо. Чемпионат мира 2018. Баку (Азербайджан). День 4-й. Мужчины до 81 кг, Женщины до 63 кг. Финалы (2018) WEB-DLRip
  • Дзюдо. Чемпионат мира 2018. Баку (Азербайджан). День 3-й. Мужчины до 73 кг, Женщины до 57 кг. Финалы (2018) WEB-DLRip
  • Дзюдо. Чемпионат мира 2018. Баку (Азербайджан). День 2-й. Мужчины до 66 кг, Женщины до 52 кг. Финалы (2018) WEB-DLRip
  • Дзюдо. Чемпионат мира 2018. Баку (Азербайджан). День 1-й. Мужчины до 60 кг, Женщины до 48 кг. Финалы (2018) WEB-DLRip


    • Комментарии (0):

      Информация

      Информация

        Посетители, находящиеся в группе Гости, не могут оставлять комментарии в данной новости.

        ↓ Меню




        ↓ Опрос

        Вы добавили сайт в закладки?
        Да
        Нет


        Top 10 за месяц (Передачи)

        Революция. Западня для России (2017) HDTVRip [H.264 / 720p-LQ] (фильм 1)

        (скачиваний: 74)
        Осторожно, Задов! Или похождения прапорщика (2004) DVDRip [H.264] (29 серий из 29)

        (скачиваний: 43)
        Революция. Западня для России (2018) (Сезон 2, Серия 1 из 2) DVB [H.264 / 1080i-LQ] (Обновляемая)

        (скачиваний: 29)
        Александр Мазин | Вождь викингов (2016) [MP3]

        (скачиваний: 27)
        Мир наизнанку Бразилия / Світ навиворіт (2018) WEB-DLRip [H.264 / 1080p-LQ] (Сезон 10, серии 1-2 из ... ) Обновляемая

        (скачиваний: 22)
        Футбол. Лига Европы УЕФА 2018-2019. Группа G. 3-й тур. Рейнджерс (Шотландия) – Спартак (Россия) (25.10.2018) WEB-DL [H.264 / 720p-LQ]

        (скачиваний: 21)
        Queen: Дни нашей жизни / Queen: Days of Our Lives (2011) DVB (Серии 1-2 из 2)

        (скачиваний: 19)
        Гай Юлий Орловский | Цикл «Юджин - повелитель времени» [9 книг. Обновляемая] (2015-2017) [FB2]

        (скачиваний: 19)
        Орел и решка. Морской сезон. По морям 2 (2018) WEB-DLRip (сезон 18, выпуск 1-3 из 20) (обновляемая)

        (скачиваний: 13)
        Дженнифер Макмахон | Обещай, что никому не скажешь (2016) [FB2]

        (скачиваний: 13)