.
Авторизация | Регистрация
Хочешь лучшие торренты? Добавь свой email!
Добавить

Торрент скачать бесплатно

  • support: webmaster@btracker.club
» » Крымский партизан Витя Коробков (2018) SATRip торрент скачать бесплатно


    Крымский партизан Витя Коробков (2018) SATRip торрент скачать бесплатно

    Опубликовал: creditsphynx44 | Дата: 29-10-2018, 23:49 | .torrent скачали: 0

    Крымский партизан Витя Коробков (2018) SATRipПроизводство: Россия, ООО САНРАЙЗ ПИКЧЕРС
    Жанр: Документальный, война, история, биография
    Режиссер: Людмила Касаткина

    Описание

    Юный пионер Витя Коробков мечтал стать художником. В Феодосии в Картинной галерее Айвазовского Витя часами рассматривал работы великого мастера, а потом сидя на берегу моря рисовал. Но судьба распорядилась иначе - в годы Великой Отечественной войны Витя стал разведчиком Восточного объединения партизан Крыма. Благодаря таланту художника и отличной памяти он запоминал расположение немецких подразделений, техники в населенных пунктах, а затем в точности выводил все на бумагу, тем самым помогая партизанскому отряду наносить точные удары по врагу, уничтожать склады с оружием. В феврале 1944 года мальчик попал к гестаповцам, где его на протяжении двух недель допрашивали и пытали, а затем расстреляли. За пять дней до расстрела Вите исполнилось 15 лет.
    Релиз от: alf62
    Продолжительность: 00: 38: 32
    Качество видео: SATRip
    Видео: Xvid, 720x400, ~1800 Kbps
    Аудио: AC3, 2 ch, 192 Kbps

    Общее
    Полное имя : D: ЗаписьКрымский партизан Витя КоробковКрымский.партизан.Витя.Коробков.2018.XviD.SATRip.flf62.avi
    Формат : AVI
    Формат/Информация : Audio Video Interleave
    Размер файла : 552 Мбайт
    Продолжительность : 38 м.
    Общий поток : 2002 Кбит/сек
    Программа кодирования : VirtualDubMod 1.5.10.3 |www.virtualdub-fr.org|| (build 2550/release)
    Библиотека кодирования : VirtualDubMod build 2550/release
    Видео
    Идентификатор : 0
    Формат : MPEG-4 Visual
    Профиль формата : Advanced Simple@L5
    Параметр BVOP формата : 2
    Параметр QPel формата : Нет
    Параметр GMC формата : Без точки перехода
    Параметр матрицы формата : Default (MPEG)
    Идентификатор кодека : XVID
    Идентификатор кодека/Подсказка : XviD
    Продолжительность : 38 м.
    Битрейт : 1800 Кбит/сек
    Ширина : 720 пикселей
    Высота : 400 пикселей
    Соотношение сторон : 16: 9
    Частота кадров : 25, 000 кадров/сек
    Цветовое пространство : YUV
    Субдискретизация насыщенности : 4: 2: 0
    Битовая глубина : 8 бит
    Тип развёртки : Прогрессивная
    Метод сжатия : С потерями
    Бит/(Пиксели*Кадры) : 0.250
    Размер потока : 496 Мбайт (90%)
    Библиотека кодирования : XviD 73
    Аудио
    Идентификатор : 1
    Формат : AC-3
    Формат/Информация : Audio Coding 3
    Расширение режима : CM (complete main)
    Параметр Endianness формата : Big
    Идентификатор кодека : 2000
    Продолжительность : 38 м.
    Вид битрейта : Постоянный
    Битрейт : 192 Кбит/сек
    Каналы : 2 канала
    Расположение каналов : Front: L R
    Частота : 48, 0 КГц
    Частота кадров : 31, 250 кадров/сек (1536 spf)
    Метод сжатия : С потерями
    Размер потока : 52, 9 Мбайт (10%)
    Выравнивание : Разделение по промежуткам
    Продолжительность промежутка : 40 мс. (1, 00 видеокадр)
    Время предзагрузки промежутка : 500 мс.

    Скриншоты для ознакомления





    Все одноименные релизы в Клубе
    Время раздачи: до появления первых 3-5 скачавших


    Крымский партизан Витя Коробков (2018) SATRip
    Рейтинг →
     (голосов: 1, оценка 4/5, голосовать можно 1 раз )

    Другие торренты по теме:

  • Выжить в лесу. Крымский сезон (2016) WEB-DLRip
  • Крымский инопланетянин. Мистика Волошина (2016.05.05) SATRip
  • Журнал | Техника молодежи. Спецвыпуск Крымский "Мост" №11-12 (1003) (2016) [PDF]
  • Крымский мост (2017) SATRip [H.264]


    • Комментарии (0):

      Информация

      Информация

        Посетители, находящиеся в группе Гости, не могут оставлять комментарии в данной новости.

        ↓ Меню




        ↓ Опрос

        Вы добавили сайт в закладки?
        Да
        Нет


        Top 10 за месяц (Передачи)

        Революция. Западня для России (2017) HDTVRip [H.264 / 720p-LQ] (фильм 1)

        (скачиваний: 75)
        Осторожно, Задов! Или похождения прапорщика (2004) DVDRip [H.264] (29 серий из 29)

        (скачиваний: 54)
        Мир наизнанку Бразилия / Світ навиворіт (2018) WEB-DLRip [H.264 / 1080p-LQ] (Сезон 10, серии 1-2 из ... ) Обновляемая

        (скачиваний: 36)
        Революция. Западня для России (2018) (Сезон 2, Серия 1 из 2) DVB [H.264 / 1080i-LQ] (Обновляемая)

        (скачиваний: 31)
        Гай Юлий Орловский | Цикл «Юджин - повелитель времени» [9 книг. Обновляемая] (2015-2017) [FB2]

        (скачиваний: 29)
        Александр Мазин | Вождь викингов (2016) [MP3]

        (скачиваний: 27)
        Уральские пельмени. 50 оттенков загорелого (2017.10.27) WEB-DL [H.264 / 720p-LQ]

        (скачиваний: 22)
        6 Кадров (2006-2015) SATRip / WEBRip (сезоны 1-8, выпуски 1-321 из) + Дополнения

        (скачиваний: 22)
        Queen: Дни нашей жизни / Queen: Days of Our Lives (2011) DVB (Серии 1-2 из 2)

        (скачиваний: 21)
        Орел и решка. Морской сезон. По морям 2 (2018) WEB-DLRip (сезон 18, выпуск 1-3 из 20) (обновляемая)

        (скачиваний: 21)