.
Авторизация | Регистрация
Хочешь лучшие торренты? Добавь свой email!
Добавить

Торрент скачать бесплатно

  • support: webmaster@btracker.club
» » Героизм по наследству. Аркадий и Николай Каманины (2018) SATRip торрент скачать бесплатно


    Героизм по наследству. Аркадий и Николай Каманины (2018) SATRip торрент скачать бесплатно

    Опубликовал: iybyybtihqz | Дата: 29-10-2018, 23:49 | .torrent скачали: 1

    Героизм по наследству. Аркадий и Николай Каманины (2018) SATRipПроизводство: Россия, ООО САНРАЙЗ ПИКЧЕРС
    Жанр: Документальный, авиация, история, биография
    Режиссер: Людмила Касаткина

    Описание

    Николай Каманин был одним из первых Героев Советского Союза, генерал-полковником авиации. Николай принимал участие в спасении челюскинцев, вывезя с дрейфующей льдины 34 человека. Неудивительно, что имея перед глазами такой пример в лице своего отца, Аркадий, сын Николая, увлекся авиацией настолько, что в 14 лет ушел на фронт и начал летать наравне с опытными пилотами. Аркадий Каманин вошел в историю как самый молодой летчик Великой Отечественной войны. Победу Аркадий Каманин встретил с тремя орденами и тремя медалями, смелый и отчаянный мальчишка к своим 16-ти годам успел совершить почти 700 боевых вылетов, а в 18-летнем возрасте, пережив войну, умер от менингита.
    Релиз от: alf62
    Продолжительность: 00: 37: 28
    Качество видео: SATRip
    Видео: Xvid, 720x400, ~1800 Kbps
    Аудио: AC3, 2 ch, 192 Kbps

    Общее
    Полное имя : E: ЗаписьНавеки с небомГероизм.по.наследству.2018.XviD.SATRip.alf62.avi
    Формат : AVI
    Формат/Информация : Audio Video Interleave
    Размер файла : 536 Мбайт
    Продолжительность : 37 м.
    Общий поток : 2001 Кбит/сек
    Программа кодирования : VirtualDubMod 1.5.10.3 |www.virtualdub-fr.org|| (build 2550/release)
    Библиотека кодирования : VirtualDubMod build 2550/release
    Видео
    Идентификатор : 0
    Формат : MPEG-4 Visual
    Профиль формата : Advanced Simple@L5
    Параметр BVOP формата : 2
    Параметр QPel формата : Нет
    Параметр GMC формата : Без точки перехода
    Параметр матрицы формата : Default (MPEG)
    Идентификатор кодека : XVID
    Идентификатор кодека/Подсказка : XviD
    Продолжительность : 37 м.
    Битрейт : 1799 Кбит/сек
    Ширина : 720 пикселей
    Высота : 400 пикселей
    Соотношение сторон : 16: 9
    Частота кадров : 25, 000 кадров/сек
    Цветовое пространство : YUV
    Субдискретизация насыщенности : 4: 2: 0
    Битовая глубина : 8 бит
    Тип развёртки : Прогрессивная
    Метод сжатия : С потерями
    Бит/(Пиксели*Кадры) : 0.250
    Размер потока : 482 Мбайт (90%)
    Библиотека кодирования : XviD 73
    Аудио
    Идентификатор : 1
    Формат : AC-3
    Формат/Информация : Audio Coding 3
    Расширение режима : CM (complete main)
    Параметр Endianness формата : Big
    Идентификатор кодека : 2000
    Продолжительность : 37 м.
    Вид битрейта : Постоянный
    Битрейт : 192 Кбит/сек
    Каналы : 2 канала
    Расположение каналов : Front: L R
    Частота : 48, 0 КГц
    Битовая глубина : 16 бит
    Метод сжатия : С потерями
    Размер потока : 51, 5 Мбайт (10%)
    Выравнивание : Разделение по промежуткам
    Продолжительность промежутка : 40 мс. (1, 00 видеокадр)
    Время предзагрузки промежутка : 500 мс.

    Скриншоты для ознакомления






    Все одноименные релизы в Клубе
    Время раздачи: до появления первых 3-5 скачавших


    Героизм по наследству. Аркадий и Николай Каманины (2018) SATRip
    Рейтинг →
     (голосов: 1, оценка 3/5, голосовать можно 1 раз )

    Другие торренты по теме:



      Комментарии (0):

      Информация

      Информация

        Посетители, находящиеся в группе Гости, не могут оставлять комментарии в данной новости.

        ↓ Меню




        ↓ Опрос

        Вы добавили сайт в закладки?
        Да
        Нет


        Top 10 за месяц (Передачи)