.
Авторизация | Регистрация
Хочешь лучшие торренты? Добавь свой email!
Добавить

Торрент скачать бесплатно

  • support: webmaster@btracker.club
» » Футбол. Лига Чемпионов УЕФА 2018-2019. Группа D. 3-й тур. Локомотив (Россия) — Порту (Португалия) (24.10.2018) WEB-DL [H.264 / 720p-LQ] торрент скачать бесплатно


    Футбол. Лига Чемпионов УЕФА 2018-2019. Группа D. 3-й тур. Локомотив (Россия) — Порту (Португалия) (24.10.2018) WEB-DL [H.264 / 720p-LQ] торрент скачать бесплатно

    Опубликовал: fregat | Дата: 29-10-2018, 05:00 | .torrent скачали: 0

    Футбол. Лига Чемпионов УЕФА 2018-2019. Группа D. 3-й тур. Локомотив (Россия) — Порту (Португалия) (24.10.2018) WEB-DL [H.264 / 720p-LQ]Телекомпания: Матч ТВ HD
    Жанр: Спорт
    Комментаторы: Михаил Поленов, Михаил Моссаковский

    Описание
    24 октября 2018 года, среда. 22: 00 МСК
    Лига Чемпионов УЕФА 2018-2019. Групповой турнир
    Группа D. 3-й тур.
    Локомотив (Москва, Россия) — Порту (Порту, Португалия)
    Стадион: РЖД Арена (Локомотив) (Москва, Россия), 16034 зрителя (56 % при вместимости 28800)
    Главный судья: Бобби Мадден (Шотландия)
    Ассистенты: Фрэнк Коннор (Шотландия), Алан Малвенни (Шотландия)
    Резервный: Дуги Поттер (Шотландия)
    Продолжительность: 01: 49: 35
    Качество видео: WEB-DL
    Язык озвучки: Русский
    Субтитры: отсутствуют
    Видео: AVC/H.264, 1280x720 (16: 9), ~4035 Kbps
    Аудио: AAC, 2 ch, 44, 1 kHz, ~128 Kbps

    Общее
    Уникальный идентификатор : 228331899008327543308316696639743382578 (0xABC71FC8AE406DF8CF2E2BFFBA26D432)
    Полное имя : F: SPORTФутболЛига Чемпионов 2018-2019UEFA CHL 2018-2019.Gr D.R3. Lokomotiv (Russia) - Porto (Portugal).mkv
    Формат : Matroska
    Версия формата : Version 4/Version 2
    Размер файла : 3, 19 Гбайт
    Продолжительность : 1 ч. 49 м.
    Общий поток : 4165 Кбит/сек
    Дата кодирования : UTC 2018-10-27 08: 42: 00
    Программа кодирования : mkvmerge v28.0.0 (\'Voice In My Head\') 32-bit
    Библиотека кодирования : libebml v1.3.6 + libmatroska v1.4.9
    Видео
    Идентификатор : 1
    Формат : AVC
    Формат/Информация : Advanced Video Codec
    Профиль формата : Baseline@L3.1
    Настройки формата : 3 Ref Frames
    Параметр CABAC формата : Нет
    Параметр RefFrames формата : 3 кадра
    Параметр GOP формата : M=1, N=25
    Идентификатор кодека : V_MPEG4/ISO/AVC
    Продолжительность : 1 ч. 49 м.
    Битрейт : 4035 Кбит/сек
    Ширина : 1280 пикселей
    Высота : 720 пикселей
    Соотношение сторон : 16: 9
    Режим частоты кадров : Переменный
    Частота кадров : 24, 874 кадров/сек
    Цветовое пространство : YUV
    Субдискретизация насыщенности : 4: 2: 0
    Битовая глубина : 8 бит
    Тип развёртки : Прогрессивная
    Бит/(Пиксели*Кадры) : 0.176
    Размер потока : 3, 09 Гбайт (97%)
    Default : Да
    Forced : Нет
    Аудио
    Идентификатор : 2
    Формат : AAC
    Формат/Информация : Advanced Audio Codec
    Профиль формата : LC
    Идентификатор кодека : A_AAC-2
    Продолжительность : 1 ч. 49 м.
    Битрейт : 127 Кбит/сек
    Каналы : 2 канала
    Расположение каналов : Front: L R
    Частота : 44, 1 КГц
    Частота кадров : 43, 066 кадра/сек (1024 SPF)
    Метод сжатия : С потерями
    Задержка видео : 975 мс.
    Размер потока : 99, 8 Мбайт (3%)
    Язык : Russian
    Default : Да
    Forced : Нет

    Скриншоты для ознакомления



    Все одноименные релизы в Клубе
    Время раздачи: 24/7 (до 1 месяца)


    Футбол. Лига Чемпионов УЕФА 2018-2019. Группа D. 3-й тур. Локомотив (Россия) — Порту (Португалия) (24.10.2018) WEB-DL [H.264/720p-LQ]
    Рейтинг →
     (голосов: 1, оценка 5/5, голосовать можно 1 раз )

    Другие торренты по теме:

  • Футбол. Лига Наций УЕФА 2018-2019. Лига B. Группа 1. 1-й тур. Чехия — Украина (06.09.2018) IPTVRip [H.264 / 1080p-LQ]
  • Футбол. Лига Наций УЕФА 2018-2019. Лига A. Группа 1. 1-й тур. Германия — Франция (06.09.2018) HDTVRip [H.264 / 720p-LQ] [hand made 50fps]
  • Футбол. Лига Наций УЕФА 2018-2019. Лига D. Группа 4. 1-й тур. Армения — Лихтенштейн (06.09.2018) HDTVRip [H.264 / 720p-LQ] [hand made 50fps]
  • Футбол. Лига Наций УЕФА 2018-2019. Лига D. Группа 1. 1-й тур. Казахстан — Грузия (06.09.2018) HDTVRip [H.264 / 720p-LQ] [hand made 50fps]
  • Футбол. Лига Наций УЕФА 2018-2019. Лига A. Группа 3. 1-й тур. Италия — Польша (07.09.2018) HDTVRip [H.264 / 720p-LQ] [hand made 50fps]
  • Футбол. Лига Наций УЕФА 2018-2019. Лига B. Группа 2. 1-й тур. Турция — Россия (07.09.2018) IPTVRip [H.264 / 1080p-LQ]
  • Футбол. Лига Наций УЕФА 2018-2019. Лига B. Группа 2. 1-й тур. Турция — Россия (07.09.2018) HDTVRip [H.264 / 720p-LQ] [hand made 50fps]
  • Футбол. Лига Наций УЕФА 2018-2019. Лига D. Группа 3. 1-й тур. Азербайджан — Косово (07.09.2018) IPTVRip [H.264 / 1080p-LQ]


    • Комментарии (0):

      Информация

      Информация

        Посетители, находящиеся в группе Гости, не могут оставлять комментарии в данной новости.

        ↓ Меню




        ↓ Опрос

        Вы добавили сайт в закладки?
        Да
        Нет


        Top 10 за месяц (Передачи)