.
Авторизация | Регистрация
Хочешь лучшие торренты? Добавь свой email!
Добавить

Торрент скачать бесплатно

  • support: webmaster@btracker.club
» » Футбол. Лига Чемпионов УЕФА 2018-2019. Групповой этап. 3-й тур. Обзор матчей. 2-й День (24.10.2018) IPTVRip [H.264 / 720p-LQ] [hand made 50fps] торрент скачать бесплатно


    Футбол. Лига Чемпионов УЕФА 2018-2019. Групповой этап. 3-й тур. Обзор матчей. 2-й День (24.10.2018) IPTVRip [H.264 / 720p-LQ] [hand made 50fps] торрент скачать бесплатно

    Опубликовал: fregat | Дата: 29-10-2018, 05:00 | .torrent скачали: 0

    Футбол. Лига Чемпионов УЕФА 2018-2019. Групповой этап. 3-й тур. Обзор матчей. 2-й День (24.10.2018) IPTVRip [H.264 / 720p-LQ] [hand made 50fps]Телекомпания: Матч! Футбол 1 HD
    Жанр: Спорт
    Комментатор: Станислав Минин

    Описание
    24 октября 2018 года, среда.
    Обзор матчей Лиги Чемпионов УЕФА 2017-2018. Групповой этап. 3-й тур
    2-й День:
    Группа A — Брюгге (Бельгия) – Монако (Монако)
    Группа B — ПСВ (Нидерланды) – Тоттенхэм Хотспур (Англия)
    Группа A — Боруссия Д (Германия) – Атлетико М (Испания)
    Группа B — Барселона (Испания) – Интер М (Италия)
    Группа C — ПСЖ (Франция) – Наполи (Италия)
    Группа C — Ливерпуль (Англия) – Црвена Звезда (Сербия)
    Группа D — Локомотив (Россия) – Порту (Португалия)
    Группа D — Галатасарай (Турция) – Шальке-04 (Германия)
    Релиз от: Вайделот
    Продолжительность: 00: 29: 17
    Качество видео: HDTVRip
    Язык озвучки: Русский
    Субтитры: отсутствуют
    Видео: AVC/H.264, 1280x720 (16: 9), ~3687 Kbps, 50 fps
    Аудио: AC3, 2 ch, 44, 1 kHz, 128 Kbps

    Общее
    Уникальный идентификатор : 196284460386024775294243606855888606617 (0x93AB03119D7077F7334735DC294F1599)
    Полное имя : F: SPORTФутболЛига Чемпионов 2018-2019ЛЧ 2018-19. 3 тур. 2 день. Обзор (24.10.2018) IPTVRip 720p by Vaidelot.mkv
    Формат : Matroska
    Версия формата : Version 4/Version 2
    Размер файла : 816 Мбайт
    Продолжительность : 29 м. 17 с.
    Общий поток : 3893 Кбит/сек
    Программа кодирования : XviD4PSP 7.0.458 DAILY
    Библиотека кодирования : Lavf57.71.100
    ErrorDetectionType : Per level 1
    ENCODING_INFO : MATROSKA, WEBM MKV 720p/H264 X264 CBR 4000kbps HQ/AAC-LC AC3 CBR 128kbps
    Видео
    Идентификатор : 1
    Формат : AVC
    Формат/Информация : Advanced Video Codec
    Профиль формата : High@L3.2
    Настройки формата : CABAC/4 Ref Frames
    Параметр CABAC формата : Да
    Параметр RefFrames формата : 4 кадра
    Идентификатор кодека : V_MPEG4/ISO/AVC
    Продолжительность : 29 м. 17 с.
    Битрейт : 3687 Кбит/сек
    Номинальный битрейт : 4000 Кбит/сек
    Ширина : 1280 пикселей
    Высота : 720 пикселей
    Соотношение сторон : 16: 9
    Режим частоты кадров : Постоянный
    Частота кадров : 50, 000 кадров/сек
    Цветовое пространство : YUV
    Субдискретизация насыщенности : 4: 2: 0
    Битовая глубина : 8 бит
    Тип развёртки : Прогрессивная
    Бит/(Пиксели*Кадры) : 0.080
    Размер потока : 772 Мбайт (95%)
    Библиотека кодирования : x264 core 157 r2901M 7d0ff22
    Настройки программы : cabac=1/ref=3/deblock=1: -2: -2/analyse=0x3: 0x133/me=hex/subme=7/psy=1/psy_rd=1.00: 0.20/mixed_ref=1/me_range=16/chroma_me=1/trellis=1/8x8dct=1/cqm=0/deadzone=21, 11/fast_pskip=1/chroma_qp_offset=-3/threads=5/lookahead_threads=1/sliced_threads=0/nr=0/decimate=1/interlaced=0/bluray_compat=0/constrained_intra=0/bframes=3/b_pyramid=2/b_adapt=2/b_bias=0/direct=3/weightb=1/open_gop=0/weightp=2/keyint=500/keyint_min=50/scenecut=40/intra_refresh=0/rc_lookahead=40/rc=cbr/mbtree=1/bitrate=4000/ratetol=1.0/qcomp=0.60/qpmin=0/qpmax=69/qpstep=4/vbv_maxrate=4000/vbv_bufsize=2857/nal_hrd=none/filler=0/ip_ratio=1.40/aq=1: 1.00
    Default : Да
    Forced : Нет
    Цветовой диапазон : Limited
    Основные цвета : BT.709
    Характеристики трансфера : BT.709
    Коэффициенты матрицы : BT.709
    Аудио
    Идентификатор : 2
    Формат : AC-3
    Формат/Информация : Audio Coding 3
    Идентификатор кодека : A_AC3
    Продолжительность : 29 м. 17 с.
    Вид битрейта : Постоянный
    Битрейт : 128 Кбит/сек
    Каналы : 2 канала
    Расположение каналов : Front: L R
    Частота : 44, 1 КГц
    Частота кадров : 28, 711 кадров/сек (1536 SPF)
    Битовая глубина : 16 бит
    Метод сжатия : С потерями
    Размер потока : 26, 8 Мбайт (3%)
    ServiceKind/String : Complete Main
    Default : Да
    Forced : Нет

    Скриншоты для ознакомления



    Все одноименные релизы в Клубе
    Время раздачи: 24/7 (до 1 месяца)


    Футбол. Лига Чемпионов УЕФА 2018-2019. Групповой этап. 3-й тур. Обзор матчей. 2-й День (24.10.2018) IPTVRip [H.264/720p-LQ] [hand made 50fps]
    Рейтинг →
     (голосов: 1, оценка 5/5, голосовать можно 1 раз )

    Другие торренты по теме:

  • Футбол. Лига Наций УЕФА 2018-2019. Лига B. Группа 1. 1-й тур. Чехия — Украина (06.09.2018) IPTVRip [H.264 / 1080p-LQ]
  • Футбол. Лига Наций УЕФА 2018-2019. Лига A. Группа 1. 1-й тур. Германия — Франция (06.09.2018) HDTVRip [H.264 / 720p-LQ] [hand made 50fps]
  • Футбол. Лига Наций УЕФА 2018-2019. Лига D. Группа 4. 1-й тур. Армения — Лихтенштейн (06.09.2018) HDTVRip [H.264 / 720p-LQ] [hand made 50fps]
  • Футбол. Лига Наций УЕФА 2018-2019. Лига D. Группа 1. 1-й тур. Казахстан — Грузия (06.09.2018) HDTVRip [H.264 / 720p-LQ] [hand made 50fps]
  • Футбол. Лига Наций УЕФА 2018-2019. Лига A. Группа 3. 1-й тур. Италия — Польша (07.09.2018) HDTVRip [H.264 / 720p-LQ] [hand made 50fps]
  • Футбол. Лига Наций УЕФА 2018-2019. Лига B. Группа 2. 1-й тур. Турция — Россия (07.09.2018) IPTVRip [H.264 / 1080p-LQ]
  • Футбол. Лига Наций УЕФА 2018-2019. Лига B. Группа 2. 1-й тур. Турция — Россия (07.09.2018) HDTVRip [H.264 / 720p-LQ] [hand made 50fps]
  • Футбол. Лига Наций УЕФА 2018-2019. Лига D. Группа 3. 1-й тур. Азербайджан — Косово (07.09.2018) IPTVRip [H.264 / 1080p-LQ]


    • Комментарии (0):

      Информация

      Информация

        Посетители, находящиеся в группе Гости, не могут оставлять комментарии в данной новости.

        ↓ Меню




        ↓ Опрос

        Вы добавили сайт в закладки?
        Да
        Нет


        Top 10 за месяц (Передачи)

        Революция. Западня для России (2017) HDTVRip [H.264 / 720p-LQ] (фильм 1)

        (скачиваний: 74)
        Осторожно, Задов! Или похождения прапорщика (2004) DVDRip [H.264] (29 серий из 29)

        (скачиваний: 47)
        Революция. Западня для России (2018) (Сезон 2, Серия 1 из 2) DVB [H.264 / 1080i-LQ] (Обновляемая)

        (скачиваний: 30)
        Мир наизнанку Бразилия / Світ навиворіт (2018) WEB-DLRip [H.264 / 1080p-LQ] (Сезон 10, серии 1-2 из ... ) Обновляемая

        (скачиваний: 30)
        Александр Мазин | Вождь викингов (2016) [MP3]

        (скачиваний: 27)
        Гай Юлий Орловский | Цикл «Юджин - повелитель времени» [9 книг. Обновляемая] (2015-2017) [FB2]

        (скачиваний: 26)
        Футбол. Лига Европы УЕФА 2018-2019. Группа G. 3-й тур. Рейнджерс (Шотландия) – Спартак (Россия) (25.10.2018) WEB-DL [H.264 / 720p-LQ]

        (скачиваний: 21)
        Queen: Дни нашей жизни / Queen: Days of Our Lives (2011) DVB (Серии 1-2 из 2)

        (скачиваний: 19)
        Орел и решка. Морской сезон. По морям 2 (2018) WEB-DLRip (сезон 18, выпуск 1-3 из 20) (обновляемая)

        (скачиваний: 16)
        6 Кадров (2006-2015) SATRip / WEBRip (сезоны 1-8, выпуски 1-321 из) + Дополнения

        (скачиваний: 15)