.
Авторизация | Регистрация
Хочешь лучшие торренты? Добавь свой email!
Добавить

Торрент скачать бесплатно

  • support: webmaster@btracker.club
» » Футбол. Лига Европы УЕФА 2018-2019. Группа E. 3-й тур. Спортинг (Португалия) – Арсенал (Англия) (25.10.2018) HDTVRip [H.264 / 720p-LQ] [hand made 50fps] торрент скачать бесплатно


    Футбол. Лига Европы УЕФА 2018-2019. Группа E. 3-й тур. Спортинг (Португалия) – Арсенал (Англия) (25.10.2018) HDTVRip [H.264 / 720p-LQ] [hand made 50fps] торрент скачать бесплатно

    Опубликовал: fregat | Дата: 29-10-2018, 05:00 | .torrent скачали: 0

    Футбол. Лига Европы УЕФА 2018-2019. Группа E. 3-й тур. Спортинг (Португалия) – Арсенал (Англия) (25.10.2018) HDTVRip [H.264 / 720p-LQ] [hand made 50fps]Телекомпания: Матч! Футбол 1 HD
    Жанр: Спорт
    Комментатор: Александр Елагин

    Описание
    25 октября 2018 года, четверг. 19: 55 МСК
    Лига Европы УЕФА 2018 - 2019. Групповой турнир
    Группа E. 3-й тур.
    Спортинг (Лиссабон, Португалия) – Арсенал (Лондон, Англия)
    Стадион: Жозе Алваладе (Лиссабон, Португалия), 40784 зрителя (81 % при вместимости 50044)
    Главный судья: Дамир Скомина (Словения)
    Ассистенты: Юре Прапротник (Словения), Роберт Вукан (Словения)
    Резервный: Мануэл Видали (Словения)
    Релиз от: CSKAfan
    Продолжительность: 01: 56: 23
    Качество видео: HDTVRip
    Язык озвучки: Русский
    Субтитры: отсутствуют
    Видео: AVC/H.264, 1280x720 (16: 9), ~4085 Kbps, 50 fps
    Аудио: AC3, 2 ch, 48 kHz, 128 Kbps

    Общее
    Уникальный идентификатор : 232156919975547408366149552163949567320 (0xAEA7CBE0B945882DA8DB75551292DD58)
    Полное имя : C: UsersADMINDownloadsVideoSportФутболЛига Европы 2018-2019Лига Европы 2018-19. Группа E. 3-й тур. Спортинг - Арсенал HDTVRip 720p rgfootball.net.mkv
    Формат : Matroska
    Версия формата : Version 2
    Размер файла : 3, 49 Гбайт
    Продолжительность : 1 ч. 56 м.
    Общий поток : 4299 Кбит/сек
    Программа кодирования : Lavf54.63.104
    Библиотека кодирования : Lavf54.63.104
    Видео
    Идентификатор : 1
    Формат : AVC
    Формат/Информация : Advanced Video Codec
    Профиль формата : High@L3.2
    Настройки формата : CABAC/4 Ref Frames
    Параметр CABAC формата : Да
    Параметр RefFrames формата : 4 кадра
    Параметр GOP формата : M=2, N=15
    Идентификатор кодека : V_MPEG4/ISO/AVC
    Продолжительность : 1 ч. 56 м.
    Битрейт : 4085 Кбит/сек
    Ширина : 1280 пикселей
    Высота : 720 пикселей
    Соотношение сторон : 16: 9
    Режим частоты кадров : Постоянный
    Частота кадров : 50, 000 кадров/сек
    Цветовое пространство : YUV
    Субдискретизация насыщенности : 4: 2: 0
    Битовая глубина : 8 бит
    Тип развёртки : Прогрессивная
    Бит/(Пиксели*Кадры) : 0.089
    Размер потока : 3, 32 Гбайт (95%)
    Default : Нет
    Forced : Нет
    Аудио
    Идентификатор : 2
    Формат : AC-3
    Формат/Информация : Audio Coding 3
    Идентификатор кодека : A_AC3
    Продолжительность : 1 ч. 56 м.
    Вид битрейта : Постоянный
    Битрейт : 128 Кбит/сек
    Каналы : 2 канала
    Расположение каналов : Front: L R
    Частота : 48, 0 КГц
    Частота кадров : 31, 250 кадров/сек (1536 SPF)
    Битовая глубина : 16 бит
    Метод сжатия : С потерями
    Размер потока : 107 Мбайт (3%)
    Язык : Russian
    ServiceKind/String : Complete Main
    Default : Да
    Forced : Нет

    Скриншоты для ознакомления



    Все одноименные релизы в Клубе
    Время раздачи: 24/7 (около 1 месяца)


    Футбол. Лига Европы УЕФА 2018-2019. Группа E. 3-й тур. Спортинг (Португалия) – Арсенал (Англия) (25.10.2018) HDTVRip [H.264/720p-LQ] [hand made 50fps]
    Рейтинг →
     (голосов: 1, оценка 5/5, голосовать можно 1 раз )

    Другие торренты по теме:

  • Футбол. Лига Наций УЕФА 2018-2019. Лига B. Группа 1. 1-й тур. Чехия — Украина (06.09.2018) IPTVRip [H.264 / 1080p-LQ]
  • Футбол. Лига Наций УЕФА 2018-2019. Лига A. Группа 1. 1-й тур. Германия — Франция (06.09.2018) HDTVRip [H.264 / 720p-LQ] [hand made 50fps]
  • Футбол. Лига Наций УЕФА 2018-2019. Лига D. Группа 4. 1-й тур. Армения — Лихтенштейн (06.09.2018) HDTVRip [H.264 / 720p-LQ] [hand made 50fps]
  • Футбол. Лига Наций УЕФА 2018-2019. Лига D. Группа 1. 1-й тур. Казахстан — Грузия (06.09.2018) HDTVRip [H.264 / 720p-LQ] [hand made 50fps]
  • Футбол. Лига Наций УЕФА 2018-2019. Лига A. Группа 3. 1-й тур. Италия — Польша (07.09.2018) HDTVRip [H.264 / 720p-LQ] [hand made 50fps]
  • Футбол. Лига Наций УЕФА 2018-2019. Лига B. Группа 2. 1-й тур. Турция — Россия (07.09.2018) IPTVRip [H.264 / 1080p-LQ]
  • Футбол. Лига Наций УЕФА 2018-2019. Лига B. Группа 2. 1-й тур. Турция — Россия (07.09.2018) HDTVRip [H.264 / 720p-LQ] [hand made 50fps]
  • Футбол. Лига Наций УЕФА 2018-2019. Лига D. Группа 3. 1-й тур. Азербайджан — Косово (07.09.2018) IPTVRip [H.264 / 1080p-LQ]


    • Комментарии (0):

      Информация

      Информация

        Посетители, находящиеся в группе Гости, не могут оставлять комментарии в данной новости.

        ↓ Меню




        ↓ Опрос

        Вы добавили сайт в закладки?
        Да
        Нет


        Top 10 за месяц (Передачи)

        Революция. Западня для России (2017) HDTVRip [H.264 / 720p-LQ] (фильм 1)

        (скачиваний: 75)
        Осторожно, Задов! Или похождения прапорщика (2004) DVDRip [H.264] (29 серий из 29)

        (скачиваний: 49)
        Мир наизнанку Бразилия / Світ навиворіт (2018) WEB-DLRip [H.264 / 1080p-LQ] (Сезон 10, серии 1-2 из ... ) Обновляемая

        (скачиваний: 35)
        Революция. Западня для России (2018) (Сезон 2, Серия 1 из 2) DVB [H.264 / 1080i-LQ] (Обновляемая)

        (скачиваний: 30)
        Гай Юлий Орловский | Цикл «Юджин - повелитель времени» [9 книг. Обновляемая] (2015-2017) [FB2]

        (скачиваний: 29)
        Александр Мазин | Вождь викингов (2016) [MP3]

        (скачиваний: 27)
        Уральские пельмени. 50 оттенков загорелого (2017.10.27) WEB-DL [H.264 / 720p-LQ]

        (скачиваний: 22)
        Футбол. Лига Европы УЕФА 2018-2019. Группа G. 3-й тур. Рейнджерс (Шотландия) – Спартак (Россия) (25.10.2018) WEB-DL [H.264 / 720p-LQ]

        (скачиваний: 21)
        Queen: Дни нашей жизни / Queen: Days of Our Lives (2011) DVB (Серии 1-2 из 2)

        (скачиваний: 21)
        6 Кадров (2006-2015) SATRip / WEBRip (сезоны 1-8, выпуски 1-321 из) + Дополнения

        (скачиваний: 19)