.
Авторизация | Регистрация
Хочешь лучшие торренты? Добавь свой email!
Добавить

Торрент скачать бесплатно

  • support: webmaster@btracker.club
» » Открытый микрофон (2018.10.26) SATRip (сезон 3, выпуск 11) торрент скачать бесплатно

    Открытый микрофон (2018.10.26) SATRip (сезон 3, выпуск 11) торрент скачать бесплатно

    Опубликовал: fregat | Дата: 29-10-2018, 05:00 | .torrent скачали: 0

    Открытый микрофон (2018.10.26) SATRip (сезон 3, выпуск 11)Телекомпания: ТНТ
    Жанр: Юмор, ТВ-шоу
    Режиссер: Роман Новиков, Аким Карташов
    Ведущий: Андрей Бебуришвили
    Участники: Руслан Белый, Тимур Каргинов, Юлия Ахмедова, Слава Комиссаренко

    Описание

    Участниками проекта станут молодые (и не очень), никому не известные стендап-комики. Монологи стендап-комиков в Открытом микрофоне основаны на реальной жизни и переживаниях. В этом шоу нет запретных тем и цензуры — только правда, только юмор, только стендап. Открытый микрофон — это не просто шоу талантов, а способ найти новых героев в юморе.

    Возраст: 16+ (зрителям, достигшим 16 лет)
    Продолжительность: 00: 48: 23
    Качество видео: SATRip
    Субтитры: Отсутствуют
    Видео: Xvid, 720х400 (16: 9), ~1800 kbps, 25.00 fps
    Аудио: MP3, 2 ch, 48.0 kHz, 128 kbps

    General
    Complete name : D: Открытый микрофон 2018.10.26.avi
    Format : AVI
    Format/Info : Audio Video Interleave
    File size : 671 MiB
    Duration : 48 min 23 s
    Overall bit rate : 1 937 kb/s
    Writing application : VirtualDubMod 1.5.10.3 (build 2550/release)
    Writing library : VirtualDubMod build 2550/release
    Video
    ID : 0
    Format : MPEG-4 Visual
    Format profile : Advanced Simple@L5
    Format settings : BVOP2
    Format settings, BVOP : 2
    Format settings, QPel : No
    Format settings, GMC : No warppoints
    Format settings, Matrix : Default (H.263)
    Codec ID : XVID
    Codec ID/Hint : XviD
    Duration : 48 min 23 s
    Bit rate : 1 800 kb/s
    Width : 720 pixels
    Height : 400 pixels
    Display aspect ratio : 16: 9
    Frame rate : 25.000 FPS
    Color space : YUV
    Chroma subsampling : 4: 2: 0
    Bit depth : 8 bits
    Scan type : Progressive
    Compression mode : Lossy
    Bits/(Pixel*Frame) : 0.250
    Stream size : 623 MiB (93%)
    Writing library : XviD 1.2.1 (UTC 2008-12-04)
    Audio
    ID : 1
    Format : MPEG Audio
    Format version : Version 1
    Format profile : Layer 3
    Format settings : Joint stereo/MS Stereo
    Codec ID : 55
    Codec ID/Hint : MP3
    Duration : 48 min 23 s
    Bit rate mode : Constant
    Bit rate : 128 kb/s
    Channel(s) : 2 channels
    Sampling rate : 48.0 kHz
    Frame rate : 41.667 FPS (1152 SPF)
    Compression mode : Lossy
    Stream size : 44.3 MiB (7%)
    Alignment : Aligned on interleaves
    Interleave, duration : 40 ms (1.00 video frame)
    Interleave, preload duratio : 504 ms
    Writing library : LAME3.99r
    Encoding settings : -m j -V 4 -q 9 -lowpass 17 -b 128

    Скриншоты для ознакомления



    Все одноименные релизы в Клубе
    Время раздачи: 24/7 (до появления первых 3-5 скачавших)

    Прямая ссылка скачивания через uTorrent


    Открытый микрофон (2018.10.26) SATRip (сезон 3, выпуск 11)
    Рейтинг →
     (голосов: 1, оценка 5/5, голосовать можно 1 раз )

    Другие торренты по теме:

  • Открытый микрофон (2017.02.17) WEB-DL [H.264 / 720p-LQ] (выпуск 4)
  • Открытый микрофон (2017.02.17) SATRip (выпуск 4)
  • Открытый микрофон (2017.02.10) WEB-DL [H.264 / 720p-LQ] (выпуск 3)
  • Открытый микрофон (2017.02.10) SATRip (выпуск 3)
  • Открытый микрофон (2017.02.22) WEB-DL [H.264 / 720p-LQ] (выпуск 5)
  • Открытый микрофон (2017.02.22) SATRip (выпуск 5)
  • Открытый микрофон (2017.03.03) HDTV [H.264 / 1080i] (выпуск 6)
  • Открытый микрофон (2017.03.03) WEB-DL [H.264 / 720p-LQ] (выпуск 6)


    • Комментарии (0):

      Информация

      Информация

        Посетители, находящиеся в группе Гости, не могут оставлять комментарии в данной новости.

        ↓ Меню




        ↓ Опрос

        Вы добавили сайт в закладки?
        Да
        Нет


        Top 10 за месяц (Передачи)

        Революция. Западня для России (2017) HDTVRip [H.264 / 720p-LQ] (фильм 1)

        (скачиваний: 74)
        Осторожно, Задов! Или похождения прапорщика (2004) DVDRip [H.264] (29 серий из 29)

        (скачиваний: 47)
        Революция. Западня для России (2018) (Сезон 2, Серия 1 из 2) DVB [H.264 / 1080i-LQ] (Обновляемая)

        (скачиваний: 30)
        Мир наизнанку Бразилия / Світ навиворіт (2018) WEB-DLRip [H.264 / 1080p-LQ] (Сезон 10, серии 1-2 из ... ) Обновляемая

        (скачиваний: 30)
        Александр Мазин | Вождь викингов (2016) [MP3]

        (скачиваний: 27)
        Гай Юлий Орловский | Цикл «Юджин - повелитель времени» [9 книг. Обновляемая] (2015-2017) [FB2]

        (скачиваний: 26)
        Футбол. Лига Европы УЕФА 2018-2019. Группа G. 3-й тур. Рейнджерс (Шотландия) – Спартак (Россия) (25.10.2018) WEB-DL [H.264 / 720p-LQ]

        (скачиваний: 21)
        Queen: Дни нашей жизни / Queen: Days of Our Lives (2011) DVB (Серии 1-2 из 2)

        (скачиваний: 19)
        Орел и решка. Морской сезон. По морям 2 (2018) WEB-DLRip (сезон 18, выпуск 1-3 из 20) (обновляемая)

        (скачиваний: 16)
        6 Кадров (2006-2015) SATRip / WEBRip (сезоны 1-8, выпуски 1-321 из) + Дополнения

        (скачиваний: 15)