.
Авторизация | Регистрация
Хочешь лучшие торренты? Добавь свой email!
Добавить

Торрент скачать бесплатно

  • support: webmaster@btracker.club
» » Малолетние узники войны (2010) SATRip торрент скачать бесплатно


    Малолетние узники войны (2010) SATRip торрент скачать бесплатно

    Опубликовал: fregat | Дата: 29-10-2018, 05:00 | .torrent скачали: 0

    Малолетние узники войны (2010) SATRipПроизводство: МедиаМенеджмент
    Жанр: Документальный
    Режиссер: Николай Горохов

    Описание

    В годы Второй мировой войны более пяти миллионов детей стали узниками фашистских концлагерей. Война - это не только человеческие жертвы, потери в бою, это и нравственные потери, это искалеченное детство, отчаяние и горе матерей. Во все времена, во всех войнах были убитые и пленные, но ни в одной войне так не страдали дети. Фашизм не признавал возрастного различия. Сотни тысяч детей с матерями и без них оказались в концлагерях и гетто. Среди узников были и дети, насильно разлученные с родителями, угнанные далеко от родных мест, упрятанные за колючую проволоку. До освобождения доживал лишь один из десяти…
    Продолжительность: 00: 39: 10
    Качество видео: SATRip
    Видео: XviD, 704x400, ~1510 Kbps
    Аудио: MP3, 2 ch, 128 Kbps
    Общее
    Полное имя : F: видеофильмыМалолетние узники войны.avi
    Формат : AVI
    Формат/Информация : Audio Video Interleave
    Размер файла : 442 Мбайт
    Продолжительность : 39 м.
    Общий поток : 1578 Кбит/сек
    Библиотека кодирования : VirtualDub build 32842/release
    Видео
    Идентификатор : 0
    Формат : MPEG-4 Visual
    Профиль формата : Advanced Simple@L5
    Параметр BVOP формата : 2
    Параметр QPel формата : Нет
    Параметр GMC формата : Без точки перехода
    Параметр матрицы формата : Default (H.263)
    Режим смешивания : Сжатый битовый поток
    Идентификатор кодека : XVID
    Идентификатор кодека/Подсказка : XviD
    Продолжительность : 39 м.
    Битрейт : 1440 Кбит/сек
    Ширина : 704 пикселя
    Высота : 400 пикселей
    Соотношение сторон : 16: 9
    Частота кадров : 25, 000 кадров/сек
    Цветовое пространство : YUV
    Субдискретизация насыщенности : 4: 2: 0
    Битовая глубина : 8 бит
    Тип развёртки : Прогрессивная
    Метод сжатия : С потерями
    Бит/(Пиксели*Кадры) : 0.205
    Размер потока : 404 Мбайт (91%)
    Библиотека кодирования : XviD 1.2.1 (UTC 2008-12-04)
    Аудио
    Идентификатор : 1
    Формат : MPEG Audio
    Версия формата : Version 1
    Профиль формата : Layer 3
    Режим : Joint stereo
    Расширение режима : MS Stereo
    Идентификатор кодека : 55
    Идентификатор кодека/Подсказка : MP3
    Продолжительность : 39 м.
    Вид битрейта : Постоянный
    Битрейт : 128 Кбит/сек
    Каналы : 2 канала
    Частота : 48, 0 КГц
    Метод сжатия : С потерями
    Размер потока : 35, 9 Мбайт (8%)
    Выравнивание : Разделение по промежуткам
    Продолжительность промежутка : 40 мс. (1, 00 видеокадр)
    Время предзагрузки промежутка : 500 мс.

    Скриншоты для ознакомления



    Малолетние узники войны на NoNaMe club
    Время раздачи: С 23: 00 до 8: 30


    Малолетние узники войны (2010) SATRip
    Рейтинг →
     (голосов: 1, оценка 5/5, голосовать можно 1 раз )

    Другие торренты по теме:

  • Малолетние узники войны (2010) SATRip скачать через торрент бесплатно


    • Комментарии (0):

      Информация

      Информация

        Посетители, находящиеся в группе Гости, не могут оставлять комментарии в данной новости.

        ↓ Меню




        ↓ Опрос

        Вы добавили сайт в закладки?
        Да
        Нет


        Top 10 за месяц (Передачи)