.
Авторизация | Регистрация
Хочешь лучшие торренты? Добавь свой email!
Добавить

Торрент скачать бесплатно

  • support: webmaster@btracker.club
» » Бесы (1999) VHSRip торрент скачать бесплатно


    Бесы (1999) VHSRip торрент скачать бесплатно

    Опубликовал: fregat | Дата: 29-10-2018, 05:00 | .torrent скачали: 0

    Бесы (1999) VHSRipТелекомпания: нет
    Жанр: Документальный

    Описание
    Чудом сохранившийся документальный фильм Владислава Шумского.
    Шумский Владислав Станиславович (28.07.1926—22.02.2000), православный историк, политолог, писатель, критик сионизма и масонства. Автор ряда книг: Трупные пятна (1994), Россией командуют граждане Израиля (1998), Страшен гитлеризм, но сионизм страшнее (1999), Россия — боль родная (1997); Нострадамус — сионистский фальшак (1999).
    Этот фильм не претендует на 100% объективность, он скорее несет в себе дух того времени, когда он создавался и представляет собой ретро взгляд на сионизм и масонство.
    Фильм будет интересен как историкам, политологам, так и людям интересующимся русской правой мыслью 90-х годов ХХ века.
    Продолжительность: 00: 51: 28
    Качество видео: VHSRip
    Перевод: Не требуется
    Видео: Xvid, 720x576, ~1 151 Kbps
    Аудио: PCM 2.0, 16KHz/16bit, 512Kbps

    General
    Complete name : G: документалкаБесы.avi
    Format : AVI
    Format/Info : Audio Video Interleave
    File size : 828 MiB
    Duration : 51mn 28s
    Overall bit rate : 2 248 Kbps
    Writing application : TMPGEnc Video Mastering Works 5 Version. 5.0.6.38
    Writing library : TMPGEnc Video Mastering Works 5 Version. 5.0.6.38
    Video
    ID : 0
    Format : MPEG-4 Visual
    Format profile : Advanced Simple@L5
    Format settings, BVOP : 2
    Format settings, QPel : No
    Format settings, GMC : No warppoints
    Format settings, Matrix : Default (H.263)
    Muxing mode : Packed bitstream
    Codec ID : XVID
    Codec ID/Hint : XviD
    Duration : 51mn 28s
    Bit rate : 1 723 Kbps
    Width : 720 pixels
    Height : 576 pixels
    Display aspect ratio : 5: 4
    Frame rate : 23.976 fps
    Standard : PAL
    Color space : YUV
    Chroma subsampling : 4: 2: 0
    Bit depth : 8 bits
    Scan type : Progressive
    Compression mode : Lossy
    Bits/(Pixel*Frame) : 0.173
    Stream size : 634 MiB (77%)
    Writing library : XviD 64
    Audio
    ID : 1
    Format : PCM
    Format settings, Endianness : Little
    Format settings, Sign : Signed
    Codec ID : 1
    Duration : 51mn 28s
    Bit rate mode : Constant
    Bit rate : 512 Kbps
    Channel(s) : 2 channels
    Sampling rate : 16.0 KHz
    Bit depth : 16 bits
    Stream size : 188 MiB (23%)
    Alignment : Aligned on interleaves
    Interleave, duration : 42 ms (1.00 video frame)
    Interleave, preload duration : 500 ms

    Скриншоты для ознакомления


    Все одноименные релизы в Клубе
    Время раздачи: с 18: 00 до 23: 00 (до появления первых 3-5 скачавших)


    Бесы (1999) VHSRip
    Рейтинг →
     (голосов: 1, оценка 5/5, голосовать можно 1 раз )

    Другие торренты по теме:

  • Ф.М.Достоевский | Бесы [2006] [M4B | AAC]
  • Бесы в мисс Джонс / Der Teufel in Miss Jonas (1976) BDRip [H.264] [AVO] скачать через торрент бесплатно
  • Project NT - Бесы (2016) [FLAC|Lossless|image + .cue] <Experimental, Psychedelic, Industrial, Post Punk>
  • Раскрывая мистические тайны. Злые духи: демоны и бесы (2016) SATRip
  • Бесы (2014) WEB-DLRip [H.264 / 720p-LQ] (серии 1-4 из 4)
  • Бесы (2014) BDRip [H.264] (серии 1-4 из 4)
  • Бесы (2014) WEB-DLRip [H.264 / 720p-LQ]
  • Федор Достоевский - Бесы (2017) SATRip (2 части) (Театр имени Е. Вахтангова)


    • Комментарии (0):

      Информация

      Информация

        Посетители, находящиеся в группе Гости, не могут оставлять комментарии в данной новости.

        ↓ Меню




        ↓ Опрос

        Вы добавили сайт в закладки?
        Да
        Нет


        Top 10 за месяц (Передачи)

        Революция. Западня для России (2017) HDTVRip [H.264 / 720p-LQ] (фильм 1)

        (скачиваний: 75)
        Осторожно, Задов! Или похождения прапорщика (2004) DVDRip [H.264] (29 серий из 29)

        (скачиваний: 49)
        Мир наизнанку Бразилия / Світ навиворіт (2018) WEB-DLRip [H.264 / 1080p-LQ] (Сезон 10, серии 1-2 из ... ) Обновляемая

        (скачиваний: 35)
        Революция. Западня для России (2018) (Сезон 2, Серия 1 из 2) DVB [H.264 / 1080i-LQ] (Обновляемая)

        (скачиваний: 30)
        Гай Юлий Орловский | Цикл «Юджин - повелитель времени» [9 книг. Обновляемая] (2015-2017) [FB2]

        (скачиваний: 28)
        Александр Мазин | Вождь викингов (2016) [MP3]

        (скачиваний: 27)
        Уральские пельмени. 50 оттенков загорелого (2017.10.27) WEB-DL [H.264 / 720p-LQ]

        (скачиваний: 22)
        Футбол. Лига Европы УЕФА 2018-2019. Группа G. 3-й тур. Рейнджерс (Шотландия) – Спартак (Россия) (25.10.2018) WEB-DL [H.264 / 720p-LQ]

        (скачиваний: 21)
        Queen: Дни нашей жизни / Queen: Days of Our Lives (2011) DVB (Серии 1-2 из 2)

        (скачиваний: 21)
        6 Кадров (2006-2015) SATRip / WEBRip (сезоны 1-8, выпуски 1-321 из) + Дополнения

        (скачиваний: 17)