.
Авторизация | Регистрация
Хочешь лучшие торренты? Добавь свой email!
Добавить

Торрент скачать бесплатно

  • support: webmaster@btracker.club
» » Тело на запчасти / Body for Parts (2013) SATRip торрент скачать бесплатно


    Тело на запчасти / Body for Parts (2013) SATRip торрент скачать бесплатно

    Опубликовал: fregat | Дата: 29-10-2018, 05:00 | .torrent скачали: 0

    Тело на запчасти / Body for Parts (2013) SATRipТелекомпания: нет
    Жанр: Документальный

    Описание
    Реклама чудесного мира медицины гласит: - *Если порвете сухожилие, не беда, новое уже под рукой*. Но лишь немногие знают, что новые медицинские имплантанты сделаны из мертвецов. Этот многомиллиардный рынок хранит свою грязную тайну. Так как не хватает доноров, мед. индустрия тайно расчленяет тела умерших в Восточной Европе. На Украине патологоанатомов обвинили в сборе частей тел при скандальных обстоятельствах. Вместе с украинскими и американскими коллегами съемочная группа решила разобраться в этом деле. В судебных документах были найдены улики, которые могут вывести на международную сеть расхитителей тел.
    Продолжительность: 00: 51: 29
    Качество видео: SATRip
    Перевод: Одноголосый закадровый, профессиональный
    Видео: Xvid, 704x384, ~1 565 Kbps
    Аудио: MP3, 2 ch, 128 Kbps

    General
    Complete name : G: документалкаBody for Parts.avi
    Format : AVI
    Format/Info : Audio Video Interleave
    File size : 627 MiB
    Duration : 51mn 29s
    Overall bit rate : 1 702 Kbps
    Writing application : VirtualDubMod 1.5.10.3 |www.virtualdub-fr.org|| (build 2550/release)
    Writing library : VirtualDubMod build 2550/release
    Video
    ID : 0
    Format : MPEG-4 Visual
    Format profile : Advanced Simple@L5
    Format settings, BVOP : 2
    Format settings, QPel : No
    Format settings, GMC : No warppoints
    Format settings, Matrix : Custom
    Codec ID : XVID
    Codec ID/Hint : XviD
    Duration : 51mn 29s
    Bit rate : 1 565 Kbps
    Width : 704 pixels
    Height : 384 pixels
    Display aspect ratio : 1.85: 1
    Frame rate : 25.000 fps
    Color space : YUV
    Chroma subsampling : 4: 2: 0
    Bit depth : 8 bits
    Scan type : Progressive
    Compression mode : Lossy
    Bits/(Pixel*Frame) : 0.232
    Stream size : 576 MiB (92%)
    Writing library : XviD 73
    Audio
    ID : 1
    Format : MPEG Audio
    Format version : Version 1
    Format profile : Layer 3
    Codec ID : 55
    Codec ID/Hint : MP3
    Duration : 51mn 29s
    Bit rate mode : Constant
    Bit rate : 128 Kbps
    Channel(s) : 2 channels
    Sampling rate : 48.0 KHz
    Compression mode : Lossy
    Stream size : 47.1 MiB (8%)
    Alignment : Aligned on interleaves
    Interleave, duration : 40 ms (1.00 video frame)
    Interleave, preload duration : 504 ms
    Writing library : LAME3.99r
    Encoding settings : -m s -V 4 -q 0 -lowpass 17 -b 128

    Скриншоты для ознакомления



    Все одноименные релизы в Клубе
    Время раздачи: с 18: 00 до 23: 00 (до появления первых 3-5 скачавших)


    Тело на запчасти/Body for Parts (2013) SATRip
    Рейтинг →
     (голосов: 1, оценка 4/5, голосовать можно 1 раз )

    Другие торренты по теме:

  • Плеть и тело (Хлыст и тело) / La frusta e il corpo (The Whip and the Body) (1963) Blu-ray [H.264 / 1080p] [Custom]
  • Инородное тело / Obce ciao (2014) WEB-DL [H.264 / 1080p-LQ] скачать через торрент бесплатно
  • Инородное тело / Obce ciao (2014) WEB-DLRip скачать через торрент бесплатно
  • Тело / The Body / El cuerpo (2012) BDRip [H.264 / 1080p] скачать через торрент бесплатно
  • Клас Фреск, Ула Фреск | Что умеет наше тело (2009) [FB2] скачать через торрент бесплатно
  • Сайен Бейлок | Мозг и тело. Как ощущения влияют на наши чувства и эмоции (2015) [EPUB, MOBI, PDF] скачать через торрент бесплатно
  • Ольга Маркес | SEKTA. Школа Идеального тела. История не про тело (2015) [FB2] скачать через торрент бесплатно
  • Это мое тело / Ceci est mon corps (2001) VHSRip [VO] скачать через торрент бесплатно


    • Комментарии (0):

      Информация

      Информация

        Посетители, находящиеся в группе Гости, не могут оставлять комментарии в данной новости.

        ↓ Меню




        ↓ Опрос

        Вы добавили сайт в закладки?
        Да
        Нет


        Top 10 за месяц (Передачи)

        Революция. Западня для России (2017) HDTVRip [H.264 / 720p-LQ] (фильм 1)

        (скачиваний: 77)
        Осторожно, Задов! Или похождения прапорщика (2004) DVDRip [H.264] (29 серий из 29)

        (скачиваний: 60)
        Мир наизнанку Бразилия / Світ навиворіт (2018) WEB-DLRip [H.264 / 1080p-LQ] (Сезон 10, серии 1-2 из ... ) Обновляемая

        (скачиваний: 44)
        Гай Юлий Орловский | Цикл «Юджин - повелитель времени» [9 книг. Обновляемая] (2015-2017) [FB2]

        (скачиваний: 32)
        Революция. Западня для России (2018) (Сезон 2, Серия 1 из 2) DVB [H.264 / 1080i-LQ] (Обновляемая)

        (скачиваний: 31)
        Александр Мазин | Вождь викингов (2016) [MP3]

        (скачиваний: 27)
        Орел и решка. Морской сезон. По морям 2 (2018) WEB-DLRip (сезон 18, выпуск 1-3 из 20) (обновляемая)

        (скачиваний: 25)
        6 Кадров (2006-2015) SATRip / WEBRip (сезоны 1-8, выпуски 1-321 из) + Дополнения

        (скачиваний: 24)
        Queen: Дни нашей жизни / Queen: Days of Our Lives (2011) DVB (Серии 1-2 из 2)

        (скачиваний: 23)
        Уральские пельмени. 50 оттенков загорелого (2017.10.27) WEB-DL [H.264 / 720p-LQ]

        (скачиваний: 22)