.
Авторизация | Регистрация
Хочешь лучшие торренты? Добавь свой email!
Добавить

Торрент скачать бесплатно

  • support: webmaster@btracker.club
» » Первая мировая война: тоннели смерти / WWI: The Tunnels of Death (2018) SATRip торрент скачать бесплатно


    Первая мировая война: тоннели смерти / WWI: The Tunnels of Death (2018) SATRip торрент скачать бесплатно

    Опубликовал: fregat | Дата: 29-10-2018, 05:00 | .torrent скачали: 0

    Первая мировая война: тоннели смерти / WWI: The Tunnels of Death (2018) SATRipПроизводство: Франция, La Famiglia, National Geographic Channel
    Жанр: Документальный, война, история

    Описание

    Декабрь 1914 года. После пяти месяцев войны немецкие войска и войска Антанты окопались за почти неприступными оборонительными сооружениями с той и другой стороны. Столкнувшись с осадным положением, солдаты вынуждены были применять старинное оружие, которое они, однако, модернизировали - это были мины, разрушающие фортификационные сооружения, залетая за них с тыла... С помощью комментариев экспертов мирового уровня, реконструкций с помощью компьютерной графики и исторических архивов вы сможете увидеть невероятные по своей мощи подземные мегасооружения Первой мировой войны.
    Релиз от: alf62
    Продолжительность: 00: 43: 44
    Качество видео: SATRip
    Перевод: Документальный дубляж (голос рассказчика - дубляж, интервью - одноголосый закадровый перевод студия Велес)
    Видео: Xvid, 720x400, ~1900 Kbps
    Аудио 1: AC3, 2 ch, 192 Kbps | Русский
    Аудио 2: AC3, 2 ch, 192 Kbps | Английский

    Общее
    Полное имя : D: ЗаписьПервая мировая война тоннели смертиПервая.мировая.война.тоннели.смерти.2018.XviD.SATRip.alf62.avi
    Формат : AVI
    Формат/Информация : Audio Video Interleave
    Размер файла : 719 Мбайт
    Продолжительность : 43 м.
    Общий поток : 2298 Кбит/сек
    Программа кодирования : VirtualDubMod 1.5.10.2 (build 2542/release)
    Библиотека кодирования : VirtualDubMod build 2542/release
    Видео
    Идентификатор : 0
    Формат : MPEG-4 Visual
    Профиль формата : Advanced Simple@L5
    Параметр BVOP формата : 2
    Параметр QPel формата : Нет
    Параметр GMC формата : Без точки перехода
    Параметр матрицы формата : Default (MPEG)
    Идентификатор кодека : XVID
    Идентификатор кодека/Подсказка : XviD
    Продолжительность : 43 м.
    Битрейт : 1900 Кбит/сек
    Ширина : 720 пикселей
    Высота : 400 пикселей
    Соотношение сторон : 16: 9
    Частота кадров : 25, 000 кадров/сек
    Цветовое пространство : YUV
    Субдискретизация насыщенности : 4: 2: 0
    Битовая глубина : 8 бит
    Тип развёртки : Прогрессивная
    Метод сжатия : С потерями
    Бит/(Пиксели*Кадры) : 0.264
    Размер потока : 594 Мбайт (83%)
    Библиотека кодирования : XviD 73
    Аудио #1
    Идентификатор : 1
    Формат : AC-3
    Формат/Информация : Audio Coding 3
    Расширение режима : CM (complete main)
    Параметр Endianness формата : Big
    Идентификатор кодека : 2000
    Продолжительность : 43 м.
    Вид битрейта : Постоянный
    Битрейт : 192 Кбит/сек
    Каналы : 2 канала
    Расположение каналов : Front: L R
    Частота : 48, 0 КГц
    Частота кадров : 31, 250 кадров/сек (1536 spf)
    Метод сжатия : С потерями
    Размер потока : 60, 1 Мбайт (8%)
    Выравнивание : Разделение по промежуткам
    Продолжительность промежутка : 40 мс. (1, 00 видеокадр)
    Время предзагрузки промежутка : 500 мс.
    Аудио #2
    Идентификатор : 2
    Формат : AC-3
    Формат/Информация : Audio Coding 3
    Расширение режима : CM (complete main)
    Параметр Endianness формата : Big
    Идентификатор кодека : 2000
    Продолжительность : 43 м.
    Вид битрейта : Постоянный
    Битрейт : 192 Кбит/сек
    Каналы : 2 канала
    Расположение каналов : Front: L R
    Частота : 48, 0 КГц
    Частота кадров : 31, 250 кадров/сек (1536 spf)
    Метод сжатия : С потерями
    Размер потока : 60, 1 Мбайт (8%)
    Выравнивание : Разделение по промежуткам
    Продолжительность промежутка : 40 мс. (1, 00 видеокадр)
    Время предзагрузки промежутка : 500 мс.

    Скриншоты для ознакомления





    Все одноименные релизы в Клубе
    Время раздачи: до появления первых 3-5 скачавших


    Первая мировая война: тоннели смерти/WWI: The Tunnels of Death (2018) SATRip
    Рейтинг →
     (голосов: 1, оценка 4/5, голосовать можно 1 раз )

    Другие торренты по теме:

  • Апокалипсис: Первая мировая война (1-2 серия из 5) / Apocalypse: World War I (2014) HDTV [H.264 / 1080i] (Обновляемая)
  • Апокалипсис: Первая мировая война (1-2 серия из 5) / Apocalypse: World War I (2014) HDTVRip (Обновляемая)
  • Апокалипсис: Первая мировая война (1-2 серия из 5) / Apocalypse: World War I (2014) HDTVRip [H.264 / 720p-LQ] (Обновляемая)
  • Первая мировая (2015) SATRip [Серии: 1-4 из 10] (Обновляемая) скачать через торрент бесплатно
  • Первая мировая война танков 3D 1.0 [En] скачать через торрент бесплатно
  • Первая Мировая война в цвете / World War 1 in color (2003) DVDRip (7 серий из 7) скачать через торрент бесплатно
  • NG: Апокалипсис: Первая мировая война (5 серий из 5) / Apocalypse: World War I (2014) HDTVRip скачать через торрент бесплатно
  • Первая мировая война: Битвы в окопах 1914-1918 / Trenches Battleground WWI (2005) IPTVRip (серии 1-8 из 8) скачать через торрент бесплатно


    • Комментарии (0):

      Информация

      Информация

        Посетители, находящиеся в группе Гости, не могут оставлять комментарии в данной новости.

        ↓ Меню




        ↓ Опрос

        Вы добавили сайт в закладки?
        Да
        Нет


        Top 10 за месяц (Передачи)

        Революция. Западня для России (2017) HDTVRip [H.264 / 720p-LQ] (фильм 1)

        (скачиваний: 77)
        Осторожно, Задов! Или похождения прапорщика (2004) DVDRip [H.264] (29 серий из 29)

        (скачиваний: 60)
        Мир наизнанку Бразилия / Світ навиворіт (2018) WEB-DLRip [H.264 / 1080p-LQ] (Сезон 10, серии 1-2 из ... ) Обновляемая

        (скачиваний: 44)
        Гай Юлий Орловский | Цикл «Юджин - повелитель времени» [9 книг. Обновляемая] (2015-2017) [FB2]

        (скачиваний: 32)
        Революция. Западня для России (2018) (Сезон 2, Серия 1 из 2) DVB [H.264 / 1080i-LQ] (Обновляемая)

        (скачиваний: 31)
        Александр Мазин | Вождь викингов (2016) [MP3]

        (скачиваний: 27)
        Орел и решка. Морской сезон. По морям 2 (2018) WEB-DLRip (сезон 18, выпуск 1-3 из 20) (обновляемая)

        (скачиваний: 25)
        6 Кадров (2006-2015) SATRip / WEBRip (сезоны 1-8, выпуски 1-321 из) + Дополнения

        (скачиваний: 24)
        Queen: Дни нашей жизни / Queen: Days of Our Lives (2011) DVB (Серии 1-2 из 2)

        (скачиваний: 23)
        Уральские пельмени. 50 оттенков загорелого (2017.10.27) WEB-DL [H.264 / 720p-LQ]

        (скачиваний: 22)