.
Авторизация | Регистрация
Хочешь лучшие торренты? Добавь свой email!
Добавить

Торрент скачать бесплатно

  • support: webmaster@btracker.club
» » BBC: Дикая природа Новой Зеландии / Wild New Zealand (New Zealand: Earths Mythical Islands) (2016) BDRemux [H.264 / 1080p] [серии 1-3 из 3] торрент скачать бесплатно


    BBC: Дикая природа Новой Зеландии / Wild New Zealand (New Zealand: Earths Mythical Islands) (2016) BDRemux [H.264 / 1080p] [серии 1-3 из 3] торрент скачать бесплатно

    Опубликовал: fregat | Дата: 29-10-2018, 05:00 | .torrent скачали: 0

    BBC: Дикая природа Новой Зеландии / Wild New Zealand (New Zealand: Earths Mythical Islands) (2016) BDRemux [H.264 / 1080p] [серии 1-3 из 3]Производство: Великобритания, Германия, BBC Natural History Unit (NHU), NDR Naturfilm, Studio Hamburg DocLights
    Жанр: Документальный, природа, флора, фауна
    Режиссер: Марк Флауэрс, Роберт Моргенштерн, Ник Истон

    Описание

    Далеко-далеко в Тихом океане лежит страна, отрезанная от остального мира еще со времен динозавров. После 80 миллионов лет изоляции природа пошла своим путем. В этом затерянном мире жизнь играет по другим правилам: пингвины живут в лесу, попугаи купаются в снегу, а вокруг бродят хищники из доисторических времен. Их жизнями управляют самые мощные силы на планете Земля. Добро пожаловать в сказочные пейзажи! Добро пожаловать в то место на планете Земля, где время остановилось... Добро пожаловать в самый странный и загадочный мир Новой Зеландии!

    Релиз от: DaVinci (Nature)
    Продолжительность: 3 х 00: 43: 17
    Качество видео: BDRemux
    Перевод: Одноголосый закадровый, профессиональный (SDI Media)
    Субтитры: отсутствуют
    Видео: AVC/H.264, 1920x1080, ~19.0 Mbps
    Аудио#1: AC3, 2 ch, 192 Kbps | Русский
    Аудио#2: DTS-HD MA, 2 ch, 1700 Kbps | Немецкий

    Общее
    Уникальный идентификатор : 250591229708347858654954407503167542438 (0xBC861D84EE47A5F99A07A77F25FCD4A6)
    Полное имя : F: КИНОWildes.Neuseeland.(2017).1080p.BD-Remux.Rus.Ger-BLUEBIRDS01E02.Im.Reich.der.Extreme_Rus.Ger-BLUEBIRD.mkv
    Формат : Matroska
    Версия формата : Version 4
    Размер файла : 6, 31 Гбайт
    Продолжительность : 43 м. 17 с.
    Режим общего битрейта : Переменный
    Общий поток : 20, 9 Мбит/сек
    Дата кодирования : UTC 2018-10-24 18: 28: 13
    Программа кодирования : mkvmerge v8.0.0 ('Til The Day That I Die') 32bit
    Библиотека кодирования : libebml v1.3.1 + libmatroska v1.4.2
    Видео
    Идентификатор : 1
    Формат : AVC
    Формат/Информация : Advanced Video Codec
    Профиль формата : High@L4.1
    Настройки формата : CABAC/3 Ref Frames
    Параметр CABAC формата : Да
    Параметр RefFrames формата : 3 кадра
    Идентификатор кодека : V_MPEG4/ISO/AVC
    Продолжительность : 43 м. 17 с.
    Вид битрейта : Переменный
    Битрейт : 19, 0 Мбит/сек
    Максимальный битрейт : 35, 0 Мбит/сек
    Ширина : 1920 пикселей
    Высота : 1080 пикселей
    Соотношение сторон : 16: 9
    Режим частоты кадров : Постоянный
    Частота кадров : 25, 000 кадров/сек
    Цветовое пространство : YUV
    Субдискретизация насыщенности : 4: 2: 0
    Битовая глубина : 8 бит
    Тип развёртки : Прогрессивная
    Бит/(Пиксели*Кадры) : 0.366
    Размер потока : 5, 73 Гбайт (91%)
    Default : Да
    Forced : Нет
    Аудио #1
    Идентификатор : 2
    Формат : AC-3
    Формат/Информация : Audio Coding 3
    Коммерческое название : Dolby Digital
    Идентификатор кодека : A_AC3
    Продолжительность : 43 м. 17 с.
    Вид битрейта : Постоянный
    Битрейт : 192 Кбит/сек
    Каналы : 2 канала
    Channel layout : L R
    Частота : 48, 0 КГц
    Частота кадров : 31, 250 кадров/сек (1536 SPF)
    Битовая глубина : 16 бит
    Метод сжатия : С потерями
    Размер потока : 59, 4 Мбайт (1%)
    Заголовок : rus AC3 2.0
    Язык : Russian
    ServiceKind/String : Complete Main
    Default : Да
    Forced : Да
    Аудио #2
    Идентификатор : 3
    Формат : DTS XLL
    Формат/Информация : Digital Theater Systems
    Коммерческое название : DTS-HD Master Audio
    Идентификатор кодека : A_DTS
    Продолжительность : 43 м. 17 с.
    Вид битрейта : Переменный
    Битрейт : 1700 Кбит/сек
    Каналы : 2 канала
    Channel layout : L R
    Частота : 48, 0 КГц
    Частота кадров : 93, 750 кадра/сек (512 SPF)
    Битовая глубина : 24 бит
    Метод сжатия : Без потерь
    Размер потока : 526 Мбайт (8%)
    Заголовок : ger DTS-HD 2.0
    Язык : German
    Default : Нет
    Forced : Нет


    BBC: Дикая природа Новой Зеландии/Wild New Zealand (New Zealand: Earths Mythical Islands) (2016) BDRemux [H.264/1080p] [серии 1-3 из 3]
    Рейтинг →
     (голосов: 1, оценка 5/5, голосовать можно 1 раз )

    Другие торренты по теме:

  • NGW: Дикая природа Перу: Добро пожаловать в джунгли / Wild Peru (2018) HDTV [H.264 / 1080i-LQ]
  • Дикая природа Индокитая: Дикая Камбоджа / Wild Cambodia (2015) HDTVRip [H.264 / 720p]
  • Дикая природа Таиланда / Wild Thailand (2013) HDTVRip [H.264 / 720p] (1-2 серии из 2) скачать через торрент бесплатно
  • Дикая природа Германии / Wildes Deutschland (2011) BDRip [H.264 / 1080p] (Сезон 1, 1-6 серия из 6)
  • Дикая природа Германии / Wildes Deutschland (2012) BDRip [H.264 / 1080p] (Сезон 2, 1-5 серия из 5) скачать через торрент бесплатно
  • Дикая природа Германии / Wildes Deutschland (2011) BDRip [H.264 / 720p] (Сезон 1, 1-6 серия из 6)
  • Гренландия. Дикая природа страны викингов / The Green Land: Wildlife in the Land of Vikings (2005) HDTVRip [H.264 / 1080i]
  • Дикая природа Германии / Wildes Deutschland (2012) BDRip [H.264 / 720p] (Сезон 2, 1-5 серия из 5) скачать через торрент бесплатно


    • Комментарии (0):

      Информация

      Информация

        Посетители, находящиеся в группе Гости, не могут оставлять комментарии в данной новости.

        ↓ Меню




        ↓ Опрос

        Вы добавили сайт в закладки?
        Да
        Нет


        Top 10 за месяц (Передачи)

        Революция. Западня для России (2017) HDTVRip [H.264 / 720p-LQ] (фильм 1)

        (скачиваний: 74)
        Осторожно, Задов! Или похождения прапорщика (2004) DVDRip [H.264] (29 серий из 29)

        (скачиваний: 47)
        Революция. Западня для России (2018) (Сезон 2, Серия 1 из 2) DVB [H.264 / 1080i-LQ] (Обновляемая)

        (скачиваний: 30)
        Мир наизнанку Бразилия / Світ навиворіт (2018) WEB-DLRip [H.264 / 1080p-LQ] (Сезон 10, серии 1-2 из ... ) Обновляемая

        (скачиваний: 30)
        Александр Мазин | Вождь викингов (2016) [MP3]

        (скачиваний: 27)
        Гай Юлий Орловский | Цикл «Юджин - повелитель времени» [9 книг. Обновляемая] (2015-2017) [FB2]

        (скачиваний: 26)
        Футбол. Лига Европы УЕФА 2018-2019. Группа G. 3-й тур. Рейнджерс (Шотландия) – Спартак (Россия) (25.10.2018) WEB-DL [H.264 / 720p-LQ]

        (скачиваний: 21)
        Queen: Дни нашей жизни / Queen: Days of Our Lives (2011) DVB (Серии 1-2 из 2)

        (скачиваний: 19)
        Орел и решка. Морской сезон. По морям 2 (2018) WEB-DLRip (сезон 18, выпуск 1-3 из 20) (обновляемая)

        (скачиваний: 16)
        6 Кадров (2006-2015) SATRip / WEBRip (сезоны 1-8, выпуски 1-321 из) + Дополнения

        (скачиваний: 15)