.
Авторизация | Регистрация
Хочешь лучшие торренты? Добавь свой email!
Добавить

Торрент скачать бесплатно

  • support: webmaster@btracker.club
» » NG. Первая мировая война: тоннели смерти / WWI: The Tunnels of Death (2018) DVB торрент скачать бесплатно


    NG. Первая мировая война: тоннели смерти / WWI: The Tunnels of Death (2018) DVB торрент скачать бесплатно

    Опубликовал: fregat | Дата: 29-10-2018, 05:00 | .torrent скачали: 1

    NG. Первая мировая война: тоннели смерти / WWI: The Tunnels of Death (2018) DVBПроизводство: Франция, La Famiglia, National Geographic Channel
    Жанр: Документальный, военный, исследование

    Описание

    Декабрь 1914 года. После пяти месяцев войны немецкие войска и войска антанты окопались за почти неприступными оборонительными сооружениями с той и другой стороны. Столкнувшись с осадным положением, солдаты вынуждены были применять старинное оружие, которое они, однако, модернизировали - это были мины, разрушающие фортификационные сооружения, залетая за них с тыла... С помощью комментариев экспертов мирового уровня, реконструкций с помощью компьютерной графики и исторических архивов вы сможете увидеть невероятные по своей мощи подземные мегасооружения Первой мировой войны.
    Релиз от: Zakol
    Продолжительность: 00: 43: 44
    Качество видео: DVB
    Перевод: Одноголосый закадровый, профессиональный (Велес)
    Субтитры: отсутствуют
    Видео: MPEG-2, 720х576@1024x576, ~3250 Kbps
    Аудио#1: MP2, 2 ch, 192 Kbps | Русский (текст читал: Олег Белов)
    Аудио#2: MP2, 2 ch, 192 Kbps | Английский

    Общее
    Идентификатор : 1 (0x1)
    Полное имя : F: КИНОПервая мировая война DVB (2018).ts
    Формат : MPEG-TS
    Размер файла : 1, 17 Гбайт
    Продолжительность : 43 м. 44 с.
    Режим общего битрейта : Переменный
    Общий поток : 3828 Кбит/сек
    Видео
    Идентификатор : 274 (0x112)
    Идентификатор меню : 25 (0x19)
    Формат : MPEG Video
    Версия формата : Version 2
    Профиль формата : Main@Main
    Настройки формата : CustomMatrix
    Параметр BVOP формата : Нет
    Параметр матрицы формата : Выборочная
    Параметр GOP формата : N=33
    Структура изображения : Frame
    Идентификатор кодека : 2
    Продолжительность : 43 м. 44 с.
    Вид битрейта : Переменный
    Битрейт : 3251 Кбит/сек
    Максимальный битрейт : 3300 Кбит/сек
    Ширина : 720 пикселей
    Высота : 576 пикселей
    Соотношение сторон : 16: 9
    Частота кадров : 25, 000 кадров/сек
    Стандарт вещания : PAL
    Цветовое пространство : YUV
    Субдискретизация насыщенности : 4: 2: 0
    Битовая глубина : 8 бит
    Тип развёртки : Чересстрочная
    Порядок развёртки : Верхнее поле первое
    Метод сжатия : С потерями
    Бит/(Пиксели*Кадры) : 0.314
    Временной код первого кадра : 00: 00: 00: 00
    Оригинал временного кода : Group of pictures t_head
    GOP, открыто/закрыто : Закрыто
    Размер потока : 1017 Мбайт (85%)
    Аудио #1
    Идентификатор : 275 (0x113)
    Идентификатор меню : 25 (0x19)
    Формат : MPEG Audio
    Версия формата : Version 1
    Профиль формата : Layer 2
    Идентификатор кодека : 3
    Продолжительность : 43 м. 44 с.
    Вид битрейта : Постоянный
    Битрейт : 192 Кбит/сек
    Каналы : 2 канала
    Частота : 48, 0 КГц
    Частота кадров : 41, 667 кадра/сек (1152 SPF)
    Метод сжатия : С потерями
    Задержка видео : 18 мс.
    Размер потока : 60, 1 Мбайт (5%)
    Язык : Russian
    Аудио #2
    Идентификатор : 276 (0x114)
    Идентификатор меню : 25 (0x19)
    Формат : MPEG Audio
    Версия формата : Version 1
    Профиль формата : Layer 2
    Идентификатор кодека : 3
    Продолжительность : 43 м. 44 с.
    Вид битрейта : Постоянный
    Битрейт : 192 Кбит/сек
    Каналы : 2 канала
    Частота : 48, 0 КГц
    Частота кадров : 41, 667 кадра/сек (1152 SPF)
    Метод сжатия : С потерями
    Задержка видео : 18 мс.
    Размер потока : 60, 1 Мбайт (5%)
    Язык : English

    Скриншоты для ознакомления



    Все одноименные релизы в Клубе
    Время раздачи: с 18: 00 до 23: 00 (до появления первых 3-5 скачавших)


    NG. Первая мировая война: тоннели смерти/WWI: The Tunnels of Death (2018) DVB
    Рейтинг →
     (голосов: 1, оценка 4/5, голосовать можно 1 раз )

    Другие торренты по теме:

  • Апокалипсис: Первая мировая война (1-2 серия из 5) / Apocalypse: World War I (2014) HDTV [H.264 / 1080i] (Обновляемая)
  • Апокалипсис: Первая мировая война (1-2 серия из 5) / Apocalypse: World War I (2014) HDTVRip (Обновляемая)
  • Апокалипсис: Первая мировая война (1-2 серия из 5) / Apocalypse: World War I (2014) HDTVRip [H.264 / 720p-LQ] (Обновляемая)
  • Первая мировая (2015) SATRip [Серии: 1-4 из 10] (Обновляемая) скачать через торрент бесплатно
  • Первая мировая война танков 3D 1.0 [En] скачать через торрент бесплатно
  • Первая Мировая война в цвете / World War 1 in color (2003) DVDRip (7 серий из 7) скачать через торрент бесплатно
  • NG: Апокалипсис: Первая мировая война (5 серий из 5) / Apocalypse: World War I (2014) HDTVRip скачать через торрент бесплатно
  • Первая мировая война: Битвы в окопах 1914-1918 / Trenches Battleground WWI (2005) IPTVRip (серии 1-8 из 8) скачать через торрент бесплатно


    • Комментарии (0):

      Информация

      Информация

        Посетители, находящиеся в группе Гости, не могут оставлять комментарии в данной новости.

        ↓ Меню




        ↓ Опрос

        Вы добавили сайт в закладки?
        Да
        Нет


        Top 10 за месяц (Передачи)

        Революция. Западня для России (2017) HDTVRip [H.264 / 720p-LQ] (фильм 1)

        (скачиваний: 77)
        Осторожно, Задов! Или похождения прапорщика (2004) DVDRip [H.264] (29 серий из 29)

        (скачиваний: 60)
        Мир наизнанку Бразилия / Світ навиворіт (2018) WEB-DLRip [H.264 / 1080p-LQ] (Сезон 10, серии 1-2 из ... ) Обновляемая

        (скачиваний: 44)
        Гай Юлий Орловский | Цикл «Юджин - повелитель времени» [9 книг. Обновляемая] (2015-2017) [FB2]

        (скачиваний: 32)
        Революция. Западня для России (2018) (Сезон 2, Серия 1 из 2) DVB [H.264 / 1080i-LQ] (Обновляемая)

        (скачиваний: 31)
        Александр Мазин | Вождь викингов (2016) [MP3]

        (скачиваний: 27)
        Орел и решка. Морской сезон. По морям 2 (2018) WEB-DLRip (сезон 18, выпуск 1-3 из 20) (обновляемая)

        (скачиваний: 25)
        6 Кадров (2006-2015) SATRip / WEBRip (сезоны 1-8, выпуски 1-321 из) + Дополнения

        (скачиваний: 24)
        Queen: Дни нашей жизни / Queen: Days of Our Lives (2011) DVB (Серии 1-2 из 2)

        (скачиваний: 23)
        Уральские пельмени. 50 оттенков загорелого (2017.10.27) WEB-DL [H.264 / 720p-LQ]

        (скачиваний: 22)