.
Авторизация | Регистрация
Хочешь лучшие торренты? Добавь свой email!
Добавить

Торрент скачать бесплатно

  • support: webmaster@btracker.club
» » NGW. Дикие животные 24 часа / Wild 24 (2016) HDTVRip [H.264 / 1080p] (сезоны 1-2, серии 1-14) торрент скачать бесплатно


    NGW. Дикие животные 24 часа / Wild 24 (2016) HDTVRip [H.264 / 1080p] (сезоны 1-2, серии 1-14) торрент скачать бесплатно

    Опубликовал: fregat | Дата: 29-10-2018, 05:00 | .torrent скачали: 0

    NGW. Дикие животные 24 часа / Wild 24 (2016) HDTVRip [H.264 / 1080p] (сезоны 1-2, серии 1-14)Производство: Новая Зеландия, Natural History New Zealand, National Geographic Channel
    Жанр: Документальный, природа, флора, фауна
    Режиссер: Эндрю Уотерворф
    Участники: Джо Пепин

    Описание

    Добро пожаловать в путешествие длиною в день, которое покажет дневные и ночные ритмы жизни самых различных уголков мира. Мы увидим, как ведут себя и как живут на протяжении дня уникальные и удивительные животные.

    Релиз от: рип Zakol
    Продолжительность: серии x ~00: 44: 00
    Качество видео: HDTVRip
    Перевод: Одноголосый закадровый, профессиональный (Велес)
    Субтитры: отсутствуют
    Видео: AVC/H.264, 1920x1080, ~4000 Kbps
    Аудио: AAC, 2 ch, 192 Kbps (текст читал: Олег Белов)

    Общее
    Уникальный идентификатор : 95221876191165564771363214396001532124 (0x47A310F72F20E4C61A16FB5012A6B8DC)
    Полное имя : F: КИНОДикие животные 24 часа 1080 (2016)Индийское лето 1080.mkv
    Формат : Matroska
    Версия формата : Version 4
    Размер файла : 1, 30 Гбайт
    Продолжительность : 43 м. 44 с.
    Режим общего битрейта : Переменный
    Общий поток : 4247 Кбит/сек
    Дата кодирования : UTC 2018-10-28 05: 07: 59
    Программа кодирования : mkvmerge v28.1.0 ('Morning Child') 64-bit
    Библиотека кодирования : libebml v1.3.6 + libmatroska v1.4.9
    Видео
    Идентификатор : 1
    Формат : AVC
    Формат/Информация : Advanced Video Codec
    Профиль формата : High@L4
    Настройки формата : CABAC/4 Ref Frames
    Параметр CABAC формата : Да
    Параметр RefFrames формата : 4 кадра
    Идентификатор кодека : V_MPEG4/ISO/AVC
    Продолжительность : 43 м. 44 с.
    Вид битрейта : Переменный
    Битрейт : 4055 Кбит/сек
    Максимальный битрейт : 4500 Кбит/сек
    Ширина : 1920 пикселей
    Высота : 1080 пикселей
    Соотношение сторон : 16: 9
    Режим частоты кадров : Постоянный
    Частота кадров : 25, 000 кадров/сек
    Цветовое пространство : YUV
    Субдискретизация насыщенности : 4: 2: 0
    Битовая глубина : 8 бит
    Тип развёртки : Прогрессивная
    Бит/(Пиксели*Кадры) : 0.078
    Размер потока : 1, 24 Гбайт (95%)
    Default : Нет
    Forced : Нет
    Аудио
    Идентификатор : 2
    Формат : AAC LC
    Формат/Информация : Advanced Audio Codec Low Complexity
    Идентификатор кодека : A_AAC-2
    Продолжительность : 43 м. 44 с.
    Битрейт : 192 Кбит/сек
    Каналы : 2 канала
    Channel layout : L R
    Частота : 48, 0 КГц
    Частота кадров : 46, 875 кадров/сек (1024 SPF)
    Метод сжатия : С потерями
    Размер потока : 59, 2 Мбайт (4%)
    Язык : Russian
    Default : Да
    Forced : Нет


    NGW. Дикие животные 24 часа/Wild 24 (2016) HDTVRip [H.264/1080p] (сезоны 1-2, серии 1-14)
    Рейтинг →
     (голосов: 1, оценка 3/5, голосовать можно 1 раз )

    Другие торренты по теме:

  • N.G. Дикие животные 24 часа / Wild 24 (2015) HDTVRip [H.264 / 720p] (сезоны 1-2, серии 1-8 из 8)
  • Animal Planet: Дикие животные / Wild Animals (2017) WEBRip [H.264 / 2160p-LQ] [4K]
  • Kemono Friends | Животные-друзья | Дикие друзья [2017, TV, 12 эп.] BD-rip 1080p 10bit raw


    • Комментарии (0):

      Информация

      Информация

        Посетители, находящиеся в группе Гости, не могут оставлять комментарии в данной новости.

        ↓ Меню




        ↓ Опрос

        Вы добавили сайт в закладки?
        Да
        Нет


        Top 10 за месяц (Передачи)

        Революция. Западня для России (2017) HDTVRip [H.264 / 720p-LQ] (фильм 1)

        (скачиваний: 74)
        Осторожно, Задов! Или похождения прапорщика (2004) DVDRip [H.264] (29 серий из 29)

        (скачиваний: 43)
        Революция. Западня для России (2018) (Сезон 2, Серия 1 из 2) DVB [H.264 / 1080i-LQ] (Обновляемая)

        (скачиваний: 29)
        Александр Мазин | Вождь викингов (2016) [MP3]

        (скачиваний: 27)
        Мир наизнанку Бразилия / Світ навиворіт (2018) WEB-DLRip [H.264 / 1080p-LQ] (Сезон 10, серии 1-2 из ... ) Обновляемая

        (скачиваний: 22)
        Футбол. Лига Европы УЕФА 2018-2019. Группа G. 3-й тур. Рейнджерс (Шотландия) – Спартак (Россия) (25.10.2018) WEB-DL [H.264 / 720p-LQ]

        (скачиваний: 21)
        Queen: Дни нашей жизни / Queen: Days of Our Lives (2011) DVB (Серии 1-2 из 2)

        (скачиваний: 19)
        Гай Юлий Орловский | Цикл «Юджин - повелитель времени» [9 книг. Обновляемая] (2015-2017) [FB2]

        (скачиваний: 19)
        Орел и решка. Морской сезон. По морям 2 (2018) WEB-DLRip (сезон 18, выпуск 1-3 из 20) (обновляемая)

        (скачиваний: 13)
        Дженнифер Макмахон | Обещай, что никому не скажешь (2016) [FB2]

        (скачиваний: 13)