.
Авторизация | Регистрация
Хочешь лучшие торренты? Добавь свой email!
Добавить

Торрент скачать бесплатно

  • support: webmaster@btracker.club
» » Скрытые следы: Война во Вьетнаме / The Vietnam War. Hidden Traces (2016) HDTVRip [H.264 / 1080p-LQ] торрент скачать бесплатно


    Скрытые следы: Война во Вьетнаме / The Vietnam War. Hidden Traces (2016) HDTVRip [H.264 / 1080p-LQ] торрент скачать бесплатно

    Опубликовал: fregat | Дата: 29-10-2018, 05:00 | .torrent скачали: 0

    Скрытые следы: Война во Вьетнаме / The Vietnam War. Hidden Traces (2016) HDTVRip [H.264 / 1080p-LQ]Производство: Франция, Docland Yard Production
    Жанр: Документальный, война, история
    Режиссер: Джулиан Депардье, Тимоти Янсен

    Описание

    С помощью расследований на месте событий и благодаря свидетельствам выживших и историков, этот выпуск позволяет по-новому взглянуть на известные события.
    Релиз от: рип Zakol
    Продолжительность: 00: 51: 53
    Качество видео: HDTV
    Перевод: Одноголосый закадровый, профессиональный (SDI Media)
    Субтитры: отсутствуют
    Видео: AVC/H.264, 1920x1080, ~4000 Kbps
    Аудио: AAC, 2 ch, 192 Kbps (текст читал: Александр Воронов)

    Общее
    Уникальный идентификатор : 135895596014348536711033529100966945863 (0x663C8A2E32E79BDEB57406E8BA81E447)
    Полное имя : F: КИНОСкрытые следы 1080 (2016).mkv
    Формат : Matroska
    Версия формата : Version 4
    Размер файла : 1, 54 Гбайт
    Продолжительность : 51 м. 52 с.
    Режим общего битрейта : Переменный
    Общий поток : 4256 Кбит/сек
    Дата кодирования : UTC 2018-10-28 18: 35: 23
    Программа кодирования : mkvmerge v28.1.0 ('Morning Child') 64-bit
    Библиотека кодирования : libebml v1.3.6 + libmatroska v1.4.9
    Видео
    Идентификатор : 1
    Формат : AVC
    Формат/Информация : Advanced Video Codec
    Профиль формата : High@L4
    Настройки формата : CABAC/4 Ref Frames
    Параметр CABAC формата : Да
    Параметр RefFrames формата : 4 кадра
    Идентификатор кодека : V_MPEG4/ISO/AVC
    Продолжительность : 51 м. 52 с.
    Вид битрейта : Переменный
    Битрейт : 4064 Кбит/сек
    Максимальный битрейт : 4500 Кбит/сек
    Ширина : 1920 пикселей
    Высота : 1080 пикселей
    Соотношение сторон : 16: 9
    Режим частоты кадров : Постоянный
    Частота кадров : 25, 000 кадров/сек
    Цветовое пространство : YUV
    Субдискретизация насыщенности : 4: 2: 0
    Битовая глубина : 8 бит
    Тип развёртки : Прогрессивная
    Бит/(Пиксели*Кадры) : 0.078
    Размер потока : 1, 47 Гбайт (95%)
    Default : Нет
    Forced : Нет
    Аудио
    Идентификатор : 2
    Формат : AAC LC
    Формат/Информация : Advanced Audio Codec Low Complexity
    Идентификатор кодека : A_AAC-2
    Продолжительность : 51 м. 52 с.
    Битрейт : 192 Кбит/сек
    Каналы : 2 канала
    Channel layout : L R
    Частота : 48, 0 КГц
    Частота кадров : 46, 875 кадров/сек (1024 SPF)
    Метод сжатия : С потерями
    Размер потока : 70, 3 Мбайт (4%)
    Язык : Russian
    Default : Да
    Forced : Нет

    Скриншоты для ознакомления




    Все одноименные релизы в Клубе
    Время раздачи: с 18: 00 до 23: 00 (до появления первых 3-5 скачавших)


    Скрытые следы: Война во Вьетнаме/The Vietnam War. Hidden Traces (2016) HDTVRip [H.264/1080p-LQ]
    Рейтинг →
     (голосов: 1, оценка 3/5, голосовать можно 1 раз )

    Другие торренты по теме:

  • Скрытые следы / Hidden Traces (2014-2016) HDTVRip [H.264 / 720p] (серии 4-5 из 6) (Обновляемая)
  • History Channel. Скрытые следы: Первая мировая война / 14-18 Hidden Traces (2014) HDTVRip [H.264 / 1080p-LQ]


    • Комментарии (0):

      Информация

      Информация

        Посетители, находящиеся в группе Гости, не могут оставлять комментарии в данной новости.

        ↓ Меню




        ↓ Опрос

        Вы добавили сайт в закладки?
        Да
        Нет


        Top 10 за месяц (Передачи)

        Революция. Западня для России (2017) HDTVRip [H.264 / 720p-LQ] (фильм 1)

        (скачиваний: 75)
        Осторожно, Задов! Или похождения прапорщика (2004) DVDRip [H.264] (29 серий из 29)

        (скачиваний: 54)
        Мир наизнанку Бразилия / Світ навиворіт (2018) WEB-DLRip [H.264 / 1080p-LQ] (Сезон 10, серии 1-2 из ... ) Обновляемая

        (скачиваний: 36)
        Революция. Западня для России (2018) (Сезон 2, Серия 1 из 2) DVB [H.264 / 1080i-LQ] (Обновляемая)

        (скачиваний: 31)
        Гай Юлий Орловский | Цикл «Юджин - повелитель времени» [9 книг. Обновляемая] (2015-2017) [FB2]

        (скачиваний: 29)
        Александр Мазин | Вождь викингов (2016) [MP3]

        (скачиваний: 27)
        Уральские пельмени. 50 оттенков загорелого (2017.10.27) WEB-DL [H.264 / 720p-LQ]

        (скачиваний: 22)
        6 Кадров (2006-2015) SATRip / WEBRip (сезоны 1-8, выпуски 1-321 из) + Дополнения

        (скачиваний: 22)
        Queen: Дни нашей жизни / Queen: Days of Our Lives (2011) DVB (Серии 1-2 из 2)

        (скачиваний: 21)
        Орел и решка. Морской сезон. По морям 2 (2018) WEB-DLRip (сезон 18, выпуск 1-3 из 20) (обновляемая)

        (скачиваний: 21)