.
Авторизация | Регистрация
Хочешь лучшие торренты? Добавь свой email!
Добавить

Торрент скачать бесплатно

  • support: webmaster@btracker.club
» » Фигурное катание. Юниорский Гран-при 2018-2019. 1-й Этап. Кубок Словакии 2018. 3-й День (2018) WEBRip [H.264 / 720p-LQ] [EN] торрент скачать бесплатно


    Фигурное катание. Юниорский Гран-при 2018-2019. 1-й Этап. Кубок Словакии 2018. 3-й День (2018) WEBRip [H.264 / 720p-LQ] [EN] торрент скачать бесплатно

    Опубликовал: fregat | Дата: 28-10-2018, 05:00 | .torrent скачали: 0

    Фигурное катание. Юниорский Гран-при 2018-2019. 1-й Этап. Кубок Словакии 2018. 3-й День (2018) WEBRip [H.264 / 720p-LQ] [EN]Телекомпания: ISU TV
    Жанр: Спорт

    Описание
    25 августа 2018 года, суббота
    1-й Этап Гран-при по фигурному катанию сезон любимого сериалаа 2018—2019 года среди юниоров.
    Братислава (Словакия). 3-й День:
    11: 45 (мск.) – Юниоры Танцы на льду. Произвольный танец
    14: 30 (мск.) – Девушки. Произвольная программа
    Церемония награждения: Девушки и Юниоры Танцы на льду.
    Стадион: Зимний стадион Ондрей Непель (Братислава, Словакия)
    Продолжительность: 01: 58: 32 — 04: 44: 36
    Качество видео: WEBRip
    Язык озвучки: Английский
    Субтитры: отсутствуют
    Видео: AVC/H.264, 1280x720 (16: 9), ~1018-1200 Kbps, 29, 97 fps
    Аудио: AAC, 2 ch, 44, 1 kHz, 128 Kbps

    Общее
    Уникальный идентификатор : 21705656466395474230909000625898410672 (0x10545B7CEF9A98337ADE5DAB226052B0)
    Полное имя : F: SPORTФигурное катаниеISU Figure Skating Junior Grand Prix Slovakia 2018.1St. Bratislava(SVK)ISU JGP Slovakia 2018.1ST.Bratislava(SVK). Day 3 (25.08.2018). JGP Slovakia 2018.Bratislava(SVK). Junior Ice Dance FD.mkv
    Формат : Matroska
    Версия формата : Version 4/Version 2
    Размер файла : 1, 10 Гбайт
    Продолжительность : 1 ч. 58 м.
    Общий поток : 1331 Кбит/сек
    Дата кодирования : UTC 2018-10-11 01: 15: 47
    Программа кодирования : mkvmerge v27.0.0 ('Metropolis') 32-bit
    Библиотека кодирования : libebml v1.3.6 + libmatroska v1.4.9
    Видео
    Идентификатор : 1
    Формат : AVC
    Формат/Информация : Advanced Video Codec
    Профиль формата : Main@L3.1
    Настройки формата : CABAC/3 Ref Frames
    Параметр CABAC формата : Да
    Параметр RefFrames формата : 3 кадра
    Параметр GOP формата : M=1, N=15
    Идентификатор кодека : V_MPEG4/ISO/AVC
    Продолжительность : 1 ч. 58 м.
    Битрейт : 1200 Кбит/сек
    Ширина : 1280 пикселей
    Высота : 720 пикселей
    Соотношение сторон : 16: 9
    Режим частоты кадров : Постоянный
    Частота кадров : 29, 970 кадров/сек
    Цветовое пространство : YUV
    Субдискретизация насыщенности : 4: 2: 0
    Битовая глубина : 8 бит
    Тип развёртки : Прогрессивная
    Бит/(Пиксели*Кадры) : 0.043
    Размер потока : 1017 Мбайт (90%)
    Default : Да
    Forced : Нет
    Цветовой диапазон : Limited
    Основные цвета : BT.709
    Характеристики трансфера : BT.709
    Коэффициенты матрицы : BT.709
    Аудио
    Идентификатор : 2
    Формат : AAC
    Формат/Информация : Advanced Audio Codec
    Профиль формата : LC
    Идентификатор кодека : A_AAC-2
    Продолжительность : 1 ч. 58 м.
    Битрейт : 128 Кбит/сек
    Каналы : 2 канала
    Расположение каналов : Front: L R
    Частота : 44, 1 КГц
    Частота кадров : 43, 066 кадра/сек (1024 SPF)
    Метод сжатия : С потерями
    Размер потока : 108 Мбайт (10%)
    Язык : English
    Default : Да
    Forced : Нет

    Общее
    Уникальный идентификатор : 95966432466615416249804023477889394718 (0x4832766C9547B3DD41CB551389EFE81E)
    Полное имя : F: SPORTФигурное катаниеISU Figure Skating Junior Grand Prix Slovakia 2018.1St. Bratislava(SVK)ISU JGP Slovakia 2018.1ST.Bratislava(SVK). Day 3 (25.08.2018). JGP Slovakia 2018.Bratislava(SVK). Junior Ladies FS.mkv
    Формат : Matroska
    Версия формата : Version 4/Version 2
    Размер файла : 2, 28 Гбайт
    Продолжительность : 4 ч. 44 м.
    Общий поток : 1149 Кбит/сек
    Дата кодирования : UTC 2018-10-11 00: 14: 38
    Программа кодирования : mkvmerge v27.0.0 ('Metropolis') 32-bit
    Библиотека кодирования : libebml v1.3.6 + libmatroska v1.4.9
    Видео
    Идентификатор : 1
    Формат : AVC
    Формат/Информация : Advanced Video Codec
    Профиль формата : Main@L3.1
    Настройки формата : CABAC/3 Ref Frames
    Параметр CABAC формата : Да
    Параметр RefFrames формата : 3 кадра
    Параметр GOP формата : M=1, N=15
    Идентификатор кодека : V_MPEG4/ISO/AVC
    Продолжительность : 4 ч. 44 м.
    Битрейт : 1018 Кбит/сек
    Ширина : 1280 пикселей
    Высота : 720 пикселей
    Соотношение сторон : 16: 9
    Режим частоты кадров : Постоянный
    Частота кадров : 29, 970 (29970/1000) кадров/сек
    Цветовое пространство : YUV
    Субдискретизация насыщенности : 4: 2: 0
    Битовая глубина : 8 бит
    Тип развёртки : Прогрессивная
    Бит/(Пиксели*Кадры) : 0.037
    Размер потока : 2, 02 Гбайт (89%)
    Default : Да
    Forced : Нет
    Цветовой диапазон : Limited
    Основные цвета : BT.709
    Характеристики трансфера : BT.709
    Коэффициенты матрицы : BT.709
    Аудио
    Идентификатор : 2
    Формат : AAC
    Формат/Информация : Advanced Audio Codec
    Профиль формата : LC
    Идентификатор кодека : A_AAC-2
    Продолжительность : 4 ч. 44 м.
    Битрейт : 128 Кбит/сек
    Каналы : 2 канала
    Расположение каналов : Front: L R
    Частота : 44, 1 КГц
    Частота кадров : 43, 066 кадра/сек (1024 SPF)
    Метод сжатия : С потерями
    Размер потока : 260 Мбайт (11%)
    Язык : English
    Default : Да
    Forced : Нет

    Скриншоты для ознакомления



    Все одноименные релизы в Клубе
    Время раздачи: 24/7 (около 1 месяца)


    Фигурное катание. Юниорский Гран-при 2018-2019. 1-й Этап. Кубок Словакии 2018. 3-й День (2018) WEBRip [H.264/720p-LQ] [EN]
    Рейтинг →
     (голосов: 1, оценка 5/5, голосовать можно 1 раз )

    Другие торренты по теме:

  • Фигурное катание. Чемпионат России 2015. Екатеринбург (Россия). Показательные выступления (27.12.2015) (2015) HDTVRip [H.264 / 720p-LQ] скачать через торрент бесплатно
  • Фигурное катание. Чемпионат России 2015. Екатеринбург (Россия). Женщины. Произвольная программа (26.12.2015) HDTVRip [H.264 / 720p-LQ] скачать через торрент бесплатно
  • Фигурное Катание. Чемпионат России 2015. Женщины. Короткая программа. (25.12.2015) HDTVRip [H.264 / 720p-LQ] скачать через торрент бесплатно
  • Фигурное катание. Чемпионат Европы 2016. Женщины. Короткая программа. (27.01.2016) HDTVRip [H.264 / 720p-LQ]
  • Фигурное катание. Чемпионат Европы 2016. Танцы. Короткая программа. (28.01.2016) HDTVRip [H.264 / 720p-LQ]
  • Фигурное катание. Чемпионат Европы 2016. Мужчины. Короткая программа. (27.01.2016) HDTVRip [H.264 / 720p-LQ]
  • Фигурное катание. Чемпионат Европы 2016. Мужчины. Произвольная программа. (28.01.2016) HDTVRip [H.264 / 720p-LQ]
  • Фигурное катание. Чемпионат Европы 2016. Пары. Короткая программа. (29.01.2016) HDTVRip [H.264 / 720p-LQ]


    • Комментарии (0):

      Информация

      Информация

        Посетители, находящиеся в группе Гости, не могут оставлять комментарии в данной новости.

        ↓ Меню




        ↓ Опрос

        Вы добавили сайт в закладки?
        Да
        Нет


        Top 10 за месяц (Передачи)

        Революция. Западня для России (2017) HDTVRip [H.264 / 720p-LQ] (фильм 1)

        (скачиваний: 77)
        Осторожно, Задов! Или похождения прапорщика (2004) DVDRip [H.264] (29 серий из 29)

        (скачиваний: 55)
        Мир наизнанку Бразилия / Світ навиворіт (2018) WEB-DLRip [H.264 / 1080p-LQ] (Сезон 10, серии 1-2 из ... ) Обновляемая

        (скачиваний: 38)
        Революция. Западня для России (2018) (Сезон 2, Серия 1 из 2) DVB [H.264 / 1080i-LQ] (Обновляемая)

        (скачиваний: 31)
        Гай Юлий Орловский | Цикл «Юджин - повелитель времени» [9 книг. Обновляемая] (2015-2017) [FB2]

        (скачиваний: 31)
        Александр Мазин | Вождь викингов (2016) [MP3]

        (скачиваний: 27)
        Орел и решка. Морской сезон. По морям 2 (2018) WEB-DLRip (сезон 18, выпуск 1-3 из 20) (обновляемая)

        (скачиваний: 24)
        6 Кадров (2006-2015) SATRip / WEBRip (сезоны 1-8, выпуски 1-321 из) + Дополнения

        (скачиваний: 23)
        Уральские пельмени. 50 оттенков загорелого (2017.10.27) WEB-DL [H.264 / 720p-LQ]

        (скачиваний: 22)
        Queen: Дни нашей жизни / Queen: Days of Our Lives (2011) DVB (Серии 1-2 из 2)

        (скачиваний: 22)