.
Авторизация | Регистрация
Хочешь лучшие торренты? Добавь свой email!
Добавить

Торрент скачать бесплатно

  • support: webmaster@btracker.club
» » Формула 1. Сезон 2018. 19-й Этап. Гран-при Мексики. Квалификация (27.10.2018) HDTV [H.264 / 1080i-LQ] торрент скачать бесплатно


    Формула 1. Сезон 2018. 19-й Этап. Гран-при Мексики. Квалификация (27.10.2018) HDTV [H.264 / 1080i-LQ] торрент скачать бесплатно

    Опубликовал: fregat | Дата: 28-10-2018, 05:00 | .torrent скачали: 0

    Формула 1. Сезон 2018. 19-й Этап. Гран-при Мексики. Квалификация (27.10.2018) HDTV [H.264 / 1080i-LQ]Телекомпания: Матч ТВ HD
    Жанр: Спорт
    Комментаторы: Алексей Попов, Наталья Фабричнова

    Описание
    27 октября 2018 года, суббота. 21: 00 МСК
    Формула 1. 19-й Этап сезон любимого сериалаа 2018 года. Гран-при Мексики. Мехико (Мексика).
    Квалификация
    Арена: Автодром имени братьев Родригес (Мехико, Мексика)
    Релиз от: Striker
    Продолжительность: 01: 00: 32
    Качество видео: HDTV
    Язык озвучки: Русский, Интершум
    Субтитры: отсутствуют
    Видео: AVC/H.264, 1920x1080 (16: 9), ~9393 Kbps
    Аудио #1: MP2, 2 ch, 48 kHz, 192 Kbps | Русский
    Аудио #2: MP2, 2 ch, 48 kHz, 192 Kbps | Интершум

    Общее
    Идентификатор : 1 (0x1)
    Полное имя : F: SPORTФормула 1F1.Round.19.Gran.Premio.de.Mexico.2018.Qualifying.HDTV.1080i.ts
    Формат : MPEG-TS
    Размер файла : 4, 35 Гбайт
    Продолжительность : 1 ч. 0 м.
    Режим общего битрейта : Переменный
    Общий поток : 10, 3 Мбит/сек
    Видео
    Идентификатор : 204 (0xCC)
    Идентификатор меню : 2204 (0x89C)
    Формат : AVC
    Формат/Информация : Advanced Video Codec
    Профиль формата : High@L4
    Настройки формата : CABAC/4 Ref Frames
    Параметр CABAC формата : Да
    Параметр RefFrames формата : 4 кадра
    Идентификатор кодека : 27
    Продолжительность : 1 ч. 0 м.
    Битрейт : 9393 Кбит/сек
    Ширина : 1920 пикселей
    Высота : 1080 пикселей
    Соотношение сторон : 16: 9
    Частота кадров : 25, 000 кадров/сек
    Стандарт вещания : Component
    Цветовое пространство : YUV
    Субдискретизация насыщенности : 4: 2: 0
    Битовая глубина : 8 бит
    Тип развёртки : Чересстрочная
    Метод сохранения типа развёртки : Раздельные поля
    Порядок развёртки : Верхнее поле первое
    Бит/(Пиксели*Кадры) : 0.181
    Размер потока : 3, 97 Гбайт (91%)
    Цветовой диапазон : Limited
    Основные цвета : BT.709
    Характеристики трансфера : BT.709
    Коэффициенты матрицы : BT.709
    Аудио #1
    Идентификатор : 304 (0x130)
    Идентификатор меню : 2204 (0x89C)
    Формат : MPEG Audio
    Версия формата : Version 1
    Профиль формата : Layer 2
    Идентификатор кодека : 3
    Продолжительность : 1 ч. 0 м.
    Вид битрейта : Постоянный
    Битрейт : 192 Кбит/сек
    Каналы : 2 канала
    Частота : 48, 0 КГц
    Частота кадров : 41, 667 кадра/сек (1152 SPF)
    Метод сжатия : С потерями
    Задержка видео : -40 мс.
    Размер потока : 83, 1 Мбайт (2%)
    Язык : Russian
    Аудио #2
    Идентификатор : 305 (0x131)
    Идентификатор меню : 2204 (0x89C)
    Формат : MPEG Audio
    Версия формата : Version 1
    Профиль формата : Layer 2
    Идентификатор кодека : 3
    Продолжительность : 1 ч. 0 м.
    Вид битрейта : Постоянный
    Битрейт : 192 Кбит/сек
    Каналы : 2 канала
    Частота : 48, 0 КГц
    Частота кадров : 41, 667 кадра/сек (1152 SPF)
    Метод сжатия : С потерями
    Задержка видео : -40 мс.
    Размер потока : 83, 1 Мбайт (2%)

    Скриншоты для ознакомления



    Все одноименные релизы в Клубе
    Время раздачи: 24/7 (до появления первых 3-5 скачавших)


    Формула 1. Сезон 2018. 19-й Этап. Гран-при Мексики. Квалификация (27.10.2018) HDTV [H.264/1080i-LQ]
    Рейтинг →
     (голосов: 1, оценка 4/5, голосовать можно 1 раз )

    Другие торренты по теме:

  • Формула 1 / Formula 1 (Весь сезон 2014) [HDTVRip-AVC 720p 50fps, RUS] скачать через торрент бесплатно
  • Формула 1 / Formula 1 (Весь сезон 2015) [HDTVRip-AVC 720p 50fps, RUS] скачать через торрент бесплатно
  • Формула 1 / Formula 1 (Весь сезон 2012) [HDTVRip-AVC 720p 50fps, RUS] скачать через торрент бесплатно
  • Формула 1. Сезон 2016. Официальные видеоклипы / Race Edits, Race Highlights & Onboard (2016) WEBRip (Обновляемая раздача)
  • Формула 1 / Formula 1 (Весь сезон 2016) HDTVRip [H.264 / 720p] [hand made 50fps]
  • Формула 1. Сезон 2017. Гран-при Китая. 2-й Этап. Свободная практика 2 (07.04.2017) HDTVRip [H.264 / 720p-LQ] [ hand made 50fps]
  • Формула 1. Сезон 2017. Гран-при Китая. 2-й Этап. Свободная практика 1 (07.04.2017) HDTVRip [H.264 / 720p-LQ] [ hand made 50fps]
  • Формула 1. Сезон 2017. Гран-при Китая. 2-й Этап. Свободная практика 3 (08.04.2017) HDTVRip [H.264 / 720p-LQ] [ hand made 50fps]


    • Комментарии (0):

      Информация

      Информация

        Посетители, находящиеся в группе Гости, не могут оставлять комментарии в данной новости.

        ↓ Меню




        ↓ Опрос

        Вы добавили сайт в закладки?
        Да
        Нет


        Top 10 за месяц (Передачи)

        Революция. Западня для России (2017) HDTVRip [H.264 / 720p-LQ] (фильм 1)

        (скачиваний: 75)
        Осторожно, Задов! Или похождения прапорщика (2004) DVDRip [H.264] (29 серий из 29)

        (скачиваний: 49)
        Мир наизнанку Бразилия / Світ навиворіт (2018) WEB-DLRip [H.264 / 1080p-LQ] (Сезон 10, серии 1-2 из ... ) Обновляемая

        (скачиваний: 35)
        Революция. Западня для России (2018) (Сезон 2, Серия 1 из 2) DVB [H.264 / 1080i-LQ] (Обновляемая)

        (скачиваний: 30)
        Гай Юлий Орловский | Цикл «Юджин - повелитель времени» [9 книг. Обновляемая] (2015-2017) [FB2]

        (скачиваний: 29)
        Александр Мазин | Вождь викингов (2016) [MP3]

        (скачиваний: 27)
        Уральские пельмени. 50 оттенков загорелого (2017.10.27) WEB-DL [H.264 / 720p-LQ]

        (скачиваний: 22)
        Футбол. Лига Европы УЕФА 2018-2019. Группа G. 3-й тур. Рейнджерс (Шотландия) – Спартак (Россия) (25.10.2018) WEB-DL [H.264 / 720p-LQ]

        (скачиваний: 21)
        Queen: Дни нашей жизни / Queen: Days of Our Lives (2011) DVB (Серии 1-2 из 2)

        (скачиваний: 21)
        6 Кадров (2006-2015) SATRip / WEBRip (сезоны 1-8, выпуски 1-321 из) + Дополнения

        (скачиваний: 19)