.
Авторизация | Регистрация
Хочешь лучшие торренты? Добавь свой email!
Добавить

Торрент скачать бесплатно

  • support: webmaster@btracker.club
» » Революция. Западня для России (2018) (Сезон 2, Серия 1 из 2) DVB [H.264 / 1080i-LQ] (Обновляемая) торрент скачать бесплатно


    Революция. Западня для России (2018) (Сезон 2, Серия 1 из 2) DVB [H.264 / 1080i-LQ] (Обновляемая) торрент скачать бесплатно

    Опубликовал: fregat | Дата: 28-10-2018, 05:00 | .torrent скачали: 3

    Революция. Западня для России (2018) (Сезон 2, Серия 1 из 2) DVB [H.264 / 1080i-LQ] (Обновляемая)Телекомпания: Россия/ВГТР, Российский Фонд культуры
    Жанр: Документальный, История
    Участники: Режиссер-постановщик: Галина Огурная

    Описание

    Фильм второй продолжает начатое в фильме первом исследование закулисных корней революционных процессов в России начала XX века.
    Часть 1
    В первой части фильма вскрываются каналы финансирования так называемой февральской революции, приводятся доказательства того, что основные потоки шли из стран Запада. Авторы фильма представляют материалы, свидетельствующие о том, как за рубежом сохранялись кадры террористов революции 1905 года, готовых к возобновлению активных действий. Найденные в зарубежных архивах эксклюзивные материалы ясно показывают, что легенда о сепаратном мире была частью развязанной против Российского государства и его главы информационной войны.
    Часть 2
    Так кто же выиграл, в конце концов, в Первой мировой войне, столетие окончания которой отмечает в этом году весь мир? Кто получил наибольшую выгоду, затратив наименьшее количество сил и средств? Этим бенефициаром оказались Соединенные Штаты Америки, занявшие место России, выведенной из числа победителей Октябрьским переворотом 1917 года. В фильме приведены факты, как и через кого финансировались революционные события, показана тайная роль, которую играли американские и британские дипломаты, а также банковский Интернационал.
    В фильме принимают участие как российские историки, так и исследователи из США, Великобритании, Германии, Франции, Финляндии.
    Продолжительность: 00: 51: 30
    Качество видео: DVB 1080i
    Субтитры: отсутствуют
    Видео: AVC/H.264, 1920х1080, ~5695 kb/s
    Аудио: MP2, 2 ch, 224 Kbps

    General
    ID : 16 (0x10)
    Complete name : 2_01_Революция_Западня для России_HD.ts
    Format : MPEG-TS
    File size : 2.24 GiB
    Duration : 51 min 32 s
    Overall bit rate mode : Variable
    Overall bit rate : 6 229 kb/s
    Video
    ID : 1901 (0x76D)
    Menu ID : 901 (0x385)
    Format : AVC
    Format/Info : Advanced Video Codec
    Format profile : High@L4
    Format settings : CABAC/3 Ref Frames
    Format settings, CABAC : Yes
    Format settings, RefFrames : 3 frames
    Codec ID : 27
    Duration : 51 min 31 s
    Bit rate : 5 695 kb/s
    Width : 1 920 pixels
    Height : 1 080 pixels
    Display aspect ratio : 16: 9
    Frame rate : 25.000 FPS
    Standard : PAL
    Color space : YUV
    Chroma subsampling : 4: 2: 0
    Bit depth : 8 bits
    Scan type : Interlaced
    Scan type, store method : Separated fields
    Scan order : Top Field First
    Bits/(Pixel*Frame) : 0.110
    Stream size : 2.05 GiB (91%)
    Color range : Limited
    Color primaries : BT.709
    Transfer characteristics : BT.709
    Matrix coefficients : BT.709
    Audio
    ID : 2901 (0xB55)
    Menu ID : 901 (0x385)
    Format : MPEG Audio
    Format version : Version 1
    Format profile : Layer 2
    Codec ID : 4
    Duration : 51 min 31 s
    Bit rate mode : Constant
    Bit rate : 224 kb/s
    Channel(s) : 2 channels
    Sampling rate : 48.0 kHz
    Frame rate : 41.667 FPS (1152 SPF)
    Compression mode : Lossy
    Delay relative to video : 28 ms
    Stream size : 82.5 MiB (4%)
    Language : std
    Language, more info : Clean effects

    Скриншоты для ознакомления



    Все одноименные релизы в Клубе
    Время раздачи: Сб-Вс с 09: 00 до 23: 30 (до появления первых 3-5 скачавших)


    Революция. Западня для России (2018) (Сезон 2, Серия 1 из 2) DVB [H.264/1080i-LQ] (Обновляемая)
    Рейтинг →
     (голосов: 1, оценка 5/5, голосовать можно 1 раз )

    Другие торренты по теме:

  • Революция. Западня для России (2017) HDTVRip [H.264 / 720p-LQ] (фильм 1)


    • Комментарии (0):

      Информация

      Информация

        Посетители, находящиеся в группе Гости, не могут оставлять комментарии в данной новости.

        ↓ Меню




        ↓ Опрос

        Вы добавили сайт в закладки?
        Да
        Нет


        Top 10 за месяц (Передачи)

        Революция. Западня для России (2017) HDTVRip [H.264 / 720p-LQ] (фильм 1)

        (скачиваний: 77)
        Осторожно, Задов! Или похождения прапорщика (2004) DVDRip [H.264] (29 серий из 29)

        (скачиваний: 60)
        Мир наизнанку Бразилия / Світ навиворіт (2018) WEB-DLRip [H.264 / 1080p-LQ] (Сезон 10, серии 1-2 из ... ) Обновляемая

        (скачиваний: 44)
        Гай Юлий Орловский | Цикл «Юджин - повелитель времени» [9 книг. Обновляемая] (2015-2017) [FB2]

        (скачиваний: 32)
        Революция. Западня для России (2018) (Сезон 2, Серия 1 из 2) DVB [H.264 / 1080i-LQ] (Обновляемая)

        (скачиваний: 31)
        Александр Мазин | Вождь викингов (2016) [MP3]

        (скачиваний: 27)
        Орел и решка. Морской сезон. По морям 2 (2018) WEB-DLRip (сезон 18, выпуск 1-3 из 20) (обновляемая)

        (скачиваний: 25)
        6 Кадров (2006-2015) SATRip / WEBRip (сезоны 1-8, выпуски 1-321 из) + Дополнения

        (скачиваний: 24)
        Queen: Дни нашей жизни / Queen: Days of Our Lives (2011) DVB (Серии 1-2 из 2)

        (скачиваний: 23)
        Уральские пельмени. 50 оттенков загорелого (2017.10.27) WEB-DL [H.264 / 720p-LQ]

        (скачиваний: 22)