.
Авторизация | Регистрация
Хочешь лучшие торренты? Добавь свой email!
Добавить

Торрент скачать бесплатно

  • support: webmaster@btracker.club
» » Битва экстрасенсов (2018.10.27) SATRip (сезон 19, выпуск 6) торрент скачать бесплатно


    Битва экстрасенсов (2018.10.27) SATRip (сезон 19, выпуск 6) торрент скачать бесплатно

    Опубликовал: fregat | Дата: 28-10-2018, 05:00 | .torrent скачали: 0

    Битва экстрасенсов (2018.10.27) SATRip (сезон 19, выпуск 6)Телекомпания: ТНТ
    Жанр: Реалити Шоу
    Ведущий: Марат Башаров

    Описание

    Новый долгожданный сезон любимого сериала. Люди, которые называют себя ясновидящими, вновь будут доказывать зрителям ТНТ наличие у себя необычных способностей. Кто из них станет сильнейшим, покажет время.
    Продолжительность: 01: 06: 48
    Качество видео: SATRip
    Субтитры: Отсутствуют
    Реклама: Присутствуют вставки текстовой рекламы
    Видео: Xvid, 720x400 (16: 9), ~1800 Kbps
    Аудио: MP3, 2 ch, 128 Kbps

    Общее
    Полное имя : G: Bitva.ekstrasensov.19.06.SATRip.avi
    Формат : AVI
    Формат/Информация : Audio Video Interleave
    Размер файла : 927 Мбайт
    Продолжительность : 1 ч. 6 м.
    Общий поток : 1940 Кбит/сек
    Программа кодирования : VirtualDubMod 1.5.10.3 |www.virtualdub-fr.org|| (build 2550/release)
    Библиотека кодирования : VirtualDubMod build 2550/release
    Видео
    Идентификатор : 0
    Формат : MPEG-4 Visual
    Профиль формата : Advanced Simple@L5
    Настройки формата : BVOP2
    Параметр BVOP формата : 2
    Параметр QPel формата : Нет
    Параметр GMC формата : Без точки перехода
    Параметр матрицы формата : Default (H.263)
    Идентификатор кодека : XVID
    Идентификатор кодека/Подсказка : XviD
    Продолжительность : 1 ч. 6 м.
    Битрейт : 1802 Кбит/сек
    Ширина : 720 пикселей
    Высота : 400 пикселей
    Соотношение сторон : 16: 9
    Частота кадров : 25, 000 кадров/сек
    Цветовое пространство : YUV
    Субдискретизация насыщенности : 4: 2: 0
    Битовая глубина : 8 бит
    Тип развёртки : Прогрессивная
    Метод сжатия : С потерями
    Бит/(Пиксели*Кадры) : 0.250
    Размер потока : 861 Мбайт (93%)
    Библиотека кодирования : XviD 1.2.1 (UTC 2008-12-04)
    Аудио
    Идентификатор : 1
    Формат : MPEG Audio
    Версия формата : Version 1
    Профиль формата : Layer 3
    Настройки формата : Joint stereo/MS Stereo
    Идентификатор кодека : 55
    Идентификатор кодека/Подсказка : MP3
    Продолжительность : 1 ч. 6 м.
    Вид битрейта : Постоянный
    Битрейт : 128 Кбит/сек
    Каналы : 2 канала
    Частота : 48, 0 КГц
    Частота кадров : 41, 667 кадра/сек (1152 SPF)
    Метод сжатия : С потерями
    Размер потока : 61, 2 Мбайт (7%)
    Выравнивание : Соединение по промежуткам
    Продолжительность промежутка : 40 мс. (1, 00 видеокадр)
    Время предзагрузки промежутка : 504 мс.
    Библиотека кодирования : LAME3.99r
    Настройки программы : -m j -V 4 -q 9 -lowpass 17 -b 128

    Скриншоты для ознакомления



    Все одноименные релизы в Клубе
    Время раздачи: 24/7 (круглосуточно) (до появления первых 3-5 скачавших)


    Битва экстрасенсов (2018.10.27) SATRip (сезон 19, выпуск 6)
    Рейтинг →
     (голосов: 1, оценка 3/5, голосовать можно 1 раз )

    Другие торренты по теме:

  • Битва экстрасенсов. Украина (сезон 14, выпуск 1) / Битва екстрасенсів (2014) SATRip [RUS / UKR] скачать через торрент бесплатно
  • Битва экстрасенсов. Украина (сезон 14, выпуск 1-3 из 13) / Битва екстрасенсів (2014) SATRip [UKR / RUS] [обновляемая]
  • Битва экстрасенсов. Сезон №15. Выпуск №2 (2014) SATRip
  • Битва экстрасенсов. Сезон №15. Выпуск №2 (2014) WEB-DL [H.264 / 720p]
  • Битва экстрасенсов. Сезон №15. Выпуск №3 (2014) SATRip скачать через торрент бесплатно
  • Битва экстрасенсов. Сезон №15. Выпуск №4 (2014) WEB-DLRip скачать через торрент бесплатно
  • Битва экстрасенсов. Сезон №15. Выпуск №4 (2014) WEB-DL [H.264 / 720p] скачать через торрент бесплатно
  • Битва экстрасенсов. Сезон №15. Выпуск №4 (2014) SATRip


    • Комментарии (0):

      Информация

      Информация

        Посетители, находящиеся в группе Гости, не могут оставлять комментарии в данной новости.

        ↓ Меню




        ↓ Опрос

        Вы добавили сайт в закладки?
        Да
        Нет


        Top 10 за месяц (Передачи)

        Революция. Западня для России (2017) HDTVRip [H.264 / 720p-LQ] (фильм 1)

        (скачиваний: 75)
        Осторожно, Задов! Или похождения прапорщика (2004) DVDRip [H.264] (29 серий из 29)

        (скачиваний: 49)
        Мир наизнанку Бразилия / Світ навиворіт (2018) WEB-DLRip [H.264 / 1080p-LQ] (Сезон 10, серии 1-2 из ... ) Обновляемая

        (скачиваний: 35)
        Революция. Западня для России (2018) (Сезон 2, Серия 1 из 2) DVB [H.264 / 1080i-LQ] (Обновляемая)

        (скачиваний: 30)
        Гай Юлий Орловский | Цикл «Юджин - повелитель времени» [9 книг. Обновляемая] (2015-2017) [FB2]

        (скачиваний: 29)
        Александр Мазин | Вождь викингов (2016) [MP3]

        (скачиваний: 27)
        Уральские пельмени. 50 оттенков загорелого (2017.10.27) WEB-DL [H.264 / 720p-LQ]

        (скачиваний: 22)
        Футбол. Лига Европы УЕФА 2018-2019. Группа G. 3-й тур. Рейнджерс (Шотландия) – Спартак (Россия) (25.10.2018) WEB-DL [H.264 / 720p-LQ]

        (скачиваний: 21)
        Queen: Дни нашей жизни / Queen: Days of Our Lives (2011) DVB (Серии 1-2 из 2)

        (скачиваний: 21)
        6 Кадров (2006-2015) SATRip / WEBRip (сезоны 1-8, выпуски 1-321 из) + Дополнения

        (скачиваний: 19)