.
Авторизация | Регистрация
Хочешь лучшие торренты? Добавь свой email!
Добавить

Торрент скачать бесплатно

  • support: webmaster@btracker.club
» » Орел и решка. Морской сезон. По морям 2 (2018) WEB-DLRip (сезон 18, выпуск 1-3 из 20) (обновляемая) торрент скачать бесплатно


    Орел и решка. Морской сезон. По морям 2 (2018) WEB-DLRip (сезон 18, выпуск 1-3 из 20) (обновляемая) торрент скачать бесплатно

    Опубликовал: fregat | Дата: 11-09-2018, 05:00 | .torrent скачали: 81

    Орел и решка. Морской сезон. По морям 2 (2018) WEB-DLRip (сезон 18, выпуск 1-3 из 20) (обновляемая)Телекомпания: Интер
    Жанр: Реалити-шоу, путешествия, география, познавательный
    Ведущий: Коля Серга и Алина Астровская

    Описание

    Проект Орел и решка. Морской сезон любимого сериала - наиболее морской из всех морских, самый подводный из всех подводных и к тому же - очень бирюзовый. Изнывать от жары, сходить с ума от роскоши и не знать, как прожить уик-энд на сто долларов в этом сезон любимого сериалае будут Коля Серга и Алина Астровская. Пройдет ли Коля испытание all inclusive’ом? На что потратит свои первые деньги новенькая ведущая?

    Продолжительность: ~ 00: 46: 00 выпуск
    Качество видео: WEB-DLRip
    Субтитры: Отсутствуют
    Видео: XviD, 720х400, ~1700 Kbps
    Аудио: AC3, 2 ch, 192 Kbps

    General
    Complete name : F: ТЕЛЕПЕРЕДАЧИОРЕЛ И РЕШКАОрел и решка. (Сезон 18). Морской сезон любимого сериала. По морям 2 (2018)Орел и решка. (Сезон 18). Морской сезон любимого сериала. По морям 2 (2018) WEB-DLRip.Орел и решка. Морской сезон любимого сериала. По морям 2.WEB-DLRip - Болгария.avi
    Format : AVI
    Format/Info : Audio Video Interleave
    File size : 602 MiB
    Duration : 44 min 12 s
    Overall bit rate : 1 903 kb/s
    Writing application : Lavf57.25.100
    Video
    ID : 0
    Format : xvid
    Codec ID : xvid
    Duration : 44 min 12 s
    Bit rate : 1 701 kb/s
    Width : 720 pixels
    Height : 400 pixels
    Display aspect ratio : 16: 9
    Frame rate : 25.000 FPS
    Scan type : Progressive
    Bits/(Pixel*Frame) : 0.236
    Stream size : 538 MiB (89%)
    Audio
    ID : 1
    Format : AC-3
    Format/Info : Audio Coding 3
    Codec ID : 2000
    Duration : 44 min 12 s
    Bit rate mode : Constant
    Bit rate : 192 kb/s
    Channel(s) : 2 channels
    Channel positions : Front: L R
    Sampling rate : 44.1 kHz
    Frame rate : 28.711 FPS (1536 SPF)
    Bit depth : 16 bits
    Compression mode : Lossy
    Stream size : 60.7 MiB (10%)
    Alignment : Aligned on interleaves
    Interleave, duration : 35 ms (0.87 video frame)
    Service kind : Complete Main


    Орел и решка. Морской сезон. По морям 2 (2018) WEB-DLRip (сезон 18, выпуск 1-3 из 20) (обновляемая)
    Рейтинг →
     (голосов: 1, оценка 3/5, голосовать можно 1 раз )

    Другие торренты по теме:

  • Орел и решка. Сезон №1. Шопинг. Стокгольм (2014.09.23) SATRip
  • Орел и решка. Сезон №9. Неизведанная Европа. Роттердам (2014.09.28) SATRip
  • Орел и решка. Сезон №1. Шопинг. Амман (2014.09.30) SATRip скачать через торрент бесплатно
  • Орел и решка. Сезон №9. Неизведанная Европа. Страна Басков (Испания) (2014.10.05) SATRip скачать через торрент бесплатно
  • Орел и решка. Сезон №9. Неизведанная Европа. Сараево (2014.10.06) SATRip скачать через торрент бесплатно
  • Орел и решка (1-8 сезон: 1-134 выпуски, Неизданное 1-3 выпуск) (2011 - 2014) SATRip, HDTVRip скачать через торрент бесплатно
  • Орел и решка. Сезон №1. Шопинг. Каир (2014.10.07) SATRip скачать через торрент бесплатно
  • Орел и решка. Сезон №9. Неизведанная Европа. Сарагоса (2014.10.19) WEBRip


    • Комментарии (0):

      Информация

      Информация

        Посетители, находящиеся в группе Гости, не могут оставлять комментарии в данной новости.

        ↓ Меню




        ↓ Опрос

        Вы добавили сайт в закладки?
        Да
        Нет


        Top 10 за месяц (Передачи)

        6 Кадров (2006-2015) SATRip / WEBRip (сезоны 1-8, выпуски 1-321 из) + Дополнения

        (скачиваний: 48)
        Осторожно, Задов! Или похождения прапорщика (2004) DVDRip [H.264] (29 серий из 29)

        (скачиваний: 40)
        Мир наизнанку Бразилия / Світ навиворіт (2018) WEB-DLRip [H.264 / 1080p-LQ] (Сезон 10, серии 1-2 из ... ) Обновляемая

        (скачиваний: 19)
        Евгений Карташов | Студийная фотосъёмка с нуля + Бонусы (2016) PCRec [H.264 / 1080p]

        (скачиваний: 13)
        Русские евреи (2016-2017) HDTVRip [H.264 / 1080p-LQ]

        (скачиваний: 13)
        Ударная сила / Ударная сила (2002-2010) DVDRip скачать через торрент бесплатно

        (скачиваний: 11)
        Comedy Woman (2009-2015) SATRip / TVRip [Выпуск: 1-156] скачать через торрент бесплатно

        (скачиваний: 11)
        Comedy Club Exclusive (2013-2014) SATRip / WEB-DLRip [Выпуск: 1-60] скачать через торрент бесплатно

        (скачиваний: 11)
        Орел и решка. Морской сезон. По морям 2 (2018) WEB-DLRip (сезон 18, выпуск 1-3 из 20) (обновляемая)

        (скачиваний: 10)
        NG: Спасти планету. Леонардо ДиКаприо / Before the Flood. Leonardo DiCaprio (2016) HDTV [H.264 / 1080i-LQ]

        (скачиваний: 10)