.
Авторизация | Регистрация
Хочешь лучшие торренты? Добавь свой email!
Добавить

Торрент скачать бесплатно

  • support: webmaster@btracker.club
» » Замуж за Бузову (2018.09.02) SATRip (1 сезон, 2 выпуск) торрент скачать бесплатно


    Замуж за Бузову (2018.09.02) SATRip (1 сезон, 2 выпуск) торрент скачать бесплатно

    Опубликовал: fregat | Дата: 3-09-2018, 05:00 | .torrent скачали: 0

    Замуж за Бузову (2018.09.02) SATRip (1 сезон, 2 выпуск)Телекомпания: ТНТ
    Жанр: Реалити Шоу
    Холостячка: Ольга Бузова

    Описание

    Замуж за Бузову — это уникальное реалити-шоу о том, как Ольга Бузова ищет мужчину, с которым сможет создать семью.
    Ее любят миллионы простых зрителей, о ней говорят топ-звезды, каждое событие ее жизни смакуется прессой. Она добилась невероятных успехов во многих областях и все, к чему она прикасается — становится индустрией. Она помогает строить любовь другим, но сама так и не обрела личное счастье. Замуж за Бузову — это последний шанс доказать Оле, что настоящие мужчины все-таки существуют, и один из них сможет сделать ее по-настоящему счастливой.
    Продолжительность: ~01: 32: 00
    Качество видео: SATRip
    Субтитры: Отсутствуют
    Видео: Xvid, 720x400(16: 9), 25.000 fps, ~1800 Kbps
    Аудио: MP3, 2 ch, 128 Kbps, CBR

    General
    Complete name : /media/vitali/MOVIES/Zamuzh.za.buzovu/Zamuzh.za.buzovu.02.(2018.09.02).avi
    Format : AVI
    Format/Info : Audio Video Interleave
    File size : 1.24 GiB
    Duration : 1 h 31 min
    Overall bit rate : 1 938 kb/s
    Writing application : VirtualDubMod 1.5.10.3 |www.virtualdub-fr.org|| (build 2550/release)
    Writing library : VirtualDubMod build 2550/release
    Video
    ID : 0
    Format : MPEG-4 Visual
    Format profile : Advanced Simple@L5
    Format settings, BVOP : 2
    Format settings, QPel : No
    Format settings, GMC : No warppoints
    Format settings, Matrix : Default (H.263)
    Codec ID : XVID
    Codec ID/Hint : XviD
    Duration : 1 h 31 min
    Bit rate : 1 800 kb/s
    Width : 720 pixels
    Height : 400 pixels
    Display aspect ratio : 16: 9
    Frame rate : 25.000 FPS
    Color space : YUV
    Chroma subsampling : 4: 2: 0
    Bit depth : 8 bits
    Scan type : Progressive
    Compression mode : Lossy
    Bits/(Pixel*Frame) : 0.250
    Stream size : 1.15 GiB (93%)
    Writing library : XviD 1.2.1 (UTC 2008-12-04)
    Audio
    ID : 1
    Format : MPEG Audio
    Format version : Version 1
    Format profile : Layer 3
    Mode : Joint stereo
    Mode extension : MS Stereo
    Codec ID : 55
    Codec ID/Hint : MP3
    Duration : 1 h 31 min
    Bit rate mode : Constant
    Bit rate : 128 kb/s
    Channel(s) : 2 channels
    Sampling rate : 48.0 kHz
    Compression mode : Lossy
    Stream size : 83.8 MiB (7%)
    Alignment : Aligned on interleaves
    Interleave, duration : 40 ms (1.00 video frame)
    Interleave, preload duration : 504 ms
    Writing library : LAME3.99r
    Encoding settings : -m j -V 4 -q 9 -lowpass 17 -b 128

    Скриншоты для ознакомления



    Все одноименные релизы в Клубе
    Время раздачи: По возможности (до появления первых 3-5 скачавших)


    Замуж за Бузову (2018.09.02) SATRip (1 сезон, 2 выпуск)
    Рейтинг →
     (голосов: 1, оценка 3/5, голосовать можно 1 раз )

    Другие торренты по теме:

  • Замуж за Бузову (2018.08.26) SATRip (1 сезон, 1 выпуск)
  • Замуж за Бузову (2018.09.09) SATRip (1 сезон, 3 выпуск)
  • Замуж за Бузову (2018.09.16) SATRip (1 сезон, 4 выпуск)


    • Комментарии (0):

      Информация

      Информация

        Посетители, находящиеся в группе Гости, не могут оставлять комментарии в данной новости.

        ↓ Меню




        ↓ Опрос

        Вы добавили сайт в закладки?
        Да
        Нет


        Top 10 за месяц (Передачи)