.
Авторизация | Регистрация

Торрент скачать бесплатно

  • support: webmaster@btracker.club
» » History Channel: Великая Марсианская война 1913-1917 / The Great Martian War 1913 - 1917 (2013) HDTV [H.264 / 1080i-LQ] торрент скачать бесплатно


    History Channel: Великая Марсианская война 1913-1917 / The Great Martian War 1913 - 1917 (2013) HDTV [H.264 / 1080i-LQ] торрент скачать бесплатно

    Дата: 3-09-2018, 05:00 | .torrent скачали: 48

    History Channel: Великая Марсианская война 1913-1917 / The Great Martian War 1913 - 1917 (2013) HDTV [H.264 / 1080i-LQ]Телекомпания: History Channel
    Жанр: документальный, фантастика, драма, военный
    Режиссер: Майк Сли
    Участники: Марк Стронг, Джок МакЛеод, Джоан Грегсон, Йен Дауни, Томас Гоф, Эшли Бомберри, Дэниел Мэтмор, Хэйзел Дуглас, Уолтер Штегмайер, Брайони Гласско

    Описание

    Псевдодокументальный фильм от History Channel рассказывает воображаемую историю о катастрофических событиях и немыслимых ужасах 1913-17 гг., когда человечество противостояло инопланетному вторжению…

    Продолжительность: 01: 28: 03
    Качество видео: HDTV
    Перевод: голос рассказчика - дубляж, интервью - многоголосый закадровый
    Субтитры: отсутствуют
    Видео: AVC, 1920x1080, ~9200 kbps
    Аудио 1: MP2, 2 ch, 192 kbps | русский
    Аудио 2: MP2, 2 ch, 192 kbps | английский

    Код: выделить все
    Общее
    Идентификатор : 1 (0x1)
    Полное имя : The.Great.Martin.War.1913-1917.1080i.HDTV.ts
    Формат : MPEG-TS
    Размер файла : 6, 20 Гбайт
    Продолжительность : 1 ч. 27 м.
    Режим общего битрейта : Переменный
    Общий поток : 10, 1 Мбит/сек
    Максимальный общий битрейт : 35, 5 Мбит/сек
    Видео
    Идентификатор : 4113 (0x1011)
    Идентификатор меню : 1 (0x1)
    Формат : AVC
    Формат/Информация : Advanced Video Codec
    Профиль формата : High@L4
    Настройки формата : CABAC/3 Ref Frames
    Параметр CABAC формата : Да
    Параметр RefFrames формата : 3 кадра
    Параметр GOP формата : M=4, N=28
    Идентификатор кодека : 27
    Продолжительность : 1 ч. 27 м.
    Вид битрейта : Переменный
    Битрейт : 9202 Кбит/сек
    Максимальный битрейт : 40, 0 Мбит/сек
    Ширина : 1920 пикселей
    Высота : 1080 пикселей
    Соотношение сторон : 16:9
    Частота кадров : 25, 000 кадров/сек
    Стандарт вещания : Component
    Цветовое пространство : YUV
    Субдискретизация насыщенности : 4:2:0
    Битовая глубина : 8 бит
    Тип развёртки : Чересстрочная
    Метод сохранения типа развёртки : Раздельные поля
    Порядок развёртки : Верхнее поле первое
    Бит/(Пиксели*Кадры) : 0.178
    Размер потока : 5, 66 Гбайт (91%)
    Цветовой диапазон : Limited
    Основные цвета : BT.709
    Характеристики трансфера : BT.709
    Коэффициенты матрицы : BT.709
    Аудио #1
    Идентификатор : 4352 (0x1100)
    Идентификатор меню : 1 (0x1)
    Формат : MPEG Audio
    Версия формата : Version 1
    Профиль формата : Layer 2
    Идентификатор кодека : 4
    Продолжительность : 1 ч. 27 м.
    Вид битрейта : Постоянный
    Битрейт : 192 Кбит/сек
    Каналы : 2 канала
    Частота : 48, 0 КГц
    Частота кадров : 41, 667 кадра/сек (1152 SPF)
    Метод сжатия : С потерями
    Размер потока : 121 Мбайт (2%)
    Язык : Russian
    Аудио #2
    Идентификатор : 4353 (0x1101)
    Идентификатор меню : 1 (0x1)
    Формат : MPEG Audio
    Версия формата : Version 1
    Профиль формата : Layer 2
    Идентификатор кодека : 4
    Продолжительность : 1 ч. 27 м.
    Вид битрейта : Постоянный
    Битрейт : 192 Кбит/сек
    Каналы : 2 канала
    Частота : 48, 0 КГц
    Частота кадров : 41, 667 кадра/сек (1152 SPF)
    Метод сжатия : С потерями
    Размер потока : 121 Мбайт (2%)
    Язык : English

    Код: выделить все
    avdump:
    File: The.Great.Martin.War.1913-1917.1080i.HDTV.ts
    Duration: 00:00:00 (0)
    Track #1: video
    lang: Unknown (1)
    codc: AVC - H264/AVC (22)
    reso: 1920x1088 - 16:9
    fram: 0 fps
    rate: 0 kbps (0)
    dura: 00:00:00 (0)
    size: 0.00 B (0)
    Track #2: audio
    lang: ru - Russian (15)
    codc: MPEG-1A L2 - MP3 CBR (5)
    chan: 2 - Stereo
    samp: 48000 Hz
    rate: 192 kbps (192.00)
    dura: 00:00:00 (0.00)
    size: 0.00 B (0)
    Track #3: audio
    lang: en - English (4)
    codc: MPEG-1A L2 - MP3 CBR (5)
    chan: 2 - Stereo
    samp: 48000 Hz
    rate: 192 kbps (192.00)
    dura: 00:00:00 (0.00)
    size: 0.00 B (0)
    Sizes: (check sanity)
    disk: 6.20 GB (6658317416)
    trac: 0.00 B (0) [based on track size]
    bitr: 0.00 B (0) [based on bitrate]
    tdif: 6.20 GB (6658317416) 100.00%
    bdif: 6.20 GB (6658317416) 100.00%

    Скриншоты для ознакомления



    Все одноименные релизы в Клубе
    Время раздачи: с 10: 00 до 22: 00 (до появления первых 3-5 скачавших)


    History Channel: Великая Марсианская война 1913-1917/The Great Martian War 1913 - 1917 (2013) HDTV [H.264/1080i-LQ]
    Рейтинг →
     (голосов: 1, оценка 5/5, голосовать можно 1 раз )

    Другие торренты по теме:

  • History Channel: История далекого прошлого / Deep Time History (2016) HDTVRip (1-2 серия из 3) (Обновляемая)
  • History Channel: Древние пришельцы / Ancient Aliens (2013) HDTVRip (Сезон 6, серия 17 )
  • History Channel: Древние пришельцы / Ancient Aliens (2013) HDTVRip (Сезон 6, серия 19 ) скачать через торрент бесплатно
  • History Channel: Древние пришельцы / Ancient Aliens (2013) HDTVRip (Сезон 6, серия 18 ) скачать через торрент бесплатно
  • History Channel: Древние пришельцы / Ancient Aliens (2014) HDTVRip (Сезон 7, серия 1 )
  • History Channel. Наследие кельтов / The Celtic Legacy (2011) HDTVRip [H.264 / 720p]
  • History Channel: Древние пришельцы / Ancient Aliens (2014) HDTVRip (Сезон 7, серия 5 ) скачать через торрент бесплатно
  • History Channel: Древние пришельцы / Ancient Aliens (2014) HDTVRip (Сезон 7, серия 2 )


    • Комментарии (0):

      Информация

      Информация

        Посетители, находящиеся в группе Гости, не могут оставлять комментарии в данной новости.

        ↓ Меню




        ↓ Опрос

        Вы добавили сайт в закладки?
        Да
        Нет


        Top 10 за месяц (Передачи)