.
Авторизация | Регистрация
Хочешь лучшие торренты? Добавь свой email!
Добавить

Торрент скачать бесплатно

  • support: webmaster@btracker.club
» » Вечер с Владимиром Соловьевым (16.07.2018) SATRip торрент скачать бесплатно


    Вечер с Владимиром Соловьевым (16.07.2018) SATRip торрент скачать бесплатно

    Опубликовал: fregat | Дата: 17-07-2018, 05:00 | .torrent скачали: 1

    Вечер с Владимиром Соловьевым (16.07.2018) SATRipТелекомпания: Россия
    Жанр: Телепередача
    Ведущий: Владимир Соловьёв

    Описание

    Мы ставили задачу сделать программу для умного, неравнодушного зрителя, которая позволит обсуждать актуальные проблемы в разных форматах: от интервью один на один до круглого стола. Надеемся, она будет такой же острой, как политическое ток-шоу Поединок. Но если в Поединке сталкиваются две полярные точки зрения, то здесь мы намерены представить более широкий спектр мнений: ведь в обществе обсуждается множество тем, которые вызывают не только однозначные реакции, - сказал автор проекта Владимир Соловьев.
    Релиз от: Хотт@быч
    Продолжительность: ~ 02: 26: 54
    Качество видео: SATRip
    Субтитры: Отсутствуют
    Видео : MPEG4, XviD, 720x400 (16: 9), 25.000 fps, 1 645 Kbps (0.228 bit/pixel)
    Аудио : MP3, 48.0 KHz, 2 ch, 128 Kbps, CBR

    Общее
    Полное имя : F: видеофильмыВечер с Владимиром СоловьевымVecher.s.Solovyovim.16.07.2018.avi
    Формат : AVI
    Формат/Информация : Audio Video Interleave
    Размер файла : 1, 82 Гбайт
    Продолжительность : 2 ч. 26 м.
    Общий поток : 1782 Кбит/сек
    Программа кодирования : VirtualDubMod 1.5.10.3 |www.virtualdub-fr.org|| (build 2550/release)
    Библиотека кодирования : VirtualDub build 29808/release
    Видео
    Идентификатор : 0
    Формат : MPEG-4 Visual
    Профиль формата : Advanced Simple@L5
    Настройки формата : BVOP1
    Параметр BVOP формата : 1
    Параметр QPel формата : Нет
    Параметр GMC формата : Без точки перехода
    Параметр матрицы формата : Default (MPEG)
    Идентификатор кодека : XVID
    Идентификатор кодека/Подсказка : XviD
    Продолжительность : 2 ч. 26 м.
    Битрейт : 1645 Кбит/сек
    Ширина : 720 пикселей
    Высота : 400 пикселей
    Соотношение сторон : 16: 9
    Частота кадров : 25, 000 кадров/сек
    Цветовое пространство : YUV
    Субдискретизация насыщенности : 4: 2: 0
    Битовая глубина : 8 бит
    Тип развёртки : Прогрессивная
    Метод сжатия : С потерями
    Бит/(Пиксели*Кадры) : 0.228
    Размер потока : 1, 68 Гбайт (92%)
    Библиотека кодирования : XviD 73
    Аудио
    Идентификатор : 1
    Формат : MPEG Audio
    Версия формата : Version 1
    Профиль формата : Layer 3
    Идентификатор кодека : 55
    Идентификатор кодека/Подсказка : MP3
    Продолжительность : 2 ч. 26 м.
    Вид битрейта : Постоянный
    Битрейт : 128 Кбит/сек
    Каналы : 2 канала
    Частота : 48, 0 КГц
    Частота кадров : 41, 667 кадра/сек (1152 SPF)
    Метод сжатия : С потерями
    Размер потока : 134 Мбайт (7%)
    Выравнивание : Соединение по промежуткам
    Продолжительность промежутка : 40 мс. (1, 00 видеокадр)
    Время предзагрузки промежутка : 504 мс.
    Библиотека кодирования : LAME3.99r
    Настройки программы : -m s -V 4 -q 9 -lowpass 17 -b 128

    Скриншоты для ознакомления



    Все одноименные релизы в Клубе
    Время раздачи: 16: 30 до 23: 00. До первых 5 скачавших.


    Вечер с Владимиром Соловьевым (16.07.2018) SATRip
    Рейтинг →
     (голосов: 1, оценка 4/5, голосовать можно 1 раз )

    Другие торренты по теме:

  • Вечер с Владимиром Соловьевым (2014.09.25) SATRip
  • Вечер с Владимиром Соловьевым (2014.09.24) SATRip
  • Вечер с Владимиром Соловьевым (2014.09.23) SATRip
  • Вечер с Владимиром Соловьевым (2014.09.22) SATRip
  • Воскресный вечер с Владимиром Соловьевым (2014.09.21) SATRip
  • Воскресный вечер с Владимиром Соловьевым (2014.09.28) SATRip
  • Вечер с Владимиром Соловьевым (2014.09.29) SATRip
  • Вечер с Владимиром Соловьевым (2014.09.30) SATRip скачать через торрент бесплатно


    • Комментарии (0):

      Информация

      Информация

        Посетители, находящиеся в группе Гости, не могут оставлять комментарии в данной новости.

        ↓ Меню




        ↓ Опрос

        Вы добавили сайт в закладки?
        Да
        Нет


        Top 10 за месяц (Передачи)

        6 Кадров (2006-2015) SATRip / WEBRip (сезоны 1-8, выпуски 1-321 из) + Дополнения

        (скачиваний: 54)
        Осторожно, Задов! Или похождения прапорщика (2004) DVDRip [H.264] (29 серий из 29)

        (скачиваний: 47)
        Мир наизнанку Бразилия / Світ навиворіт (2018) WEB-DLRip [H.264 / 1080p-LQ] (Сезон 10, серии 1-2 из ... ) Обновляемая

        (скачиваний: 22)
        Comedy Club Exclusive (2013-2014) SATRip / WEB-DLRip [Выпуск: 1-60] скачать через торрент бесплатно

        (скачиваний: 17)
        Русские евреи (2016-2017) HDTVRip [H.264 / 1080p-LQ]

        (скачиваний: 15)
        Ударная сила / Ударная сила (2002-2010) DVDRip скачать через торрент бесплатно

        (скачиваний: 14)
        Евгений Карташов | Студийная фотосъёмка с нуля + Бонусы (2016) PCRec [H.264 / 1080p]

        (скачиваний: 13)
        Comedy Woman (2009-2015) SATRip / TVRip [Выпуск: 1-156] скачать через торрент бесплатно

        (скачиваний: 12)
        Орел и решка. Морской сезон. По морям 2 (2018) WEB-DLRip (сезон 18, выпуск 1-3 из 20) (обновляемая)

        (скачиваний: 11)
        Comedy Club (2010-2014) SATRip / WEB-DLRip [Выпуск: 201-363] скачать через торрент бесплатно

        (скачиваний: 11)