.
Авторизация | Регистрация
Хочешь лучшие торренты? Добавь свой email!
Добавить

Торрент скачать бесплатно

  • support: webmaster@btracker.club
» » Queen: Дни нашей жизни / Queen: Days of Our Lives (2011) DVB (Серии 1-2 из 2) торрент скачать бесплатно


    Queen: Дни нашей жизни / Queen: Days of Our Lives (2011) DVB (Серии 1-2 из 2) торрент скачать бесплатно

    Опубликовал: fregat | Дата: 2-07-2018, 05:00 | .torrent скачали: 28

    Queen: Дни нашей жизни / Queen: Days of Our Lives (2011) DVB (Серии 1-2 из 2)Телекомпания: Великобритания/Globe Productions, British Broadcasting Corporation (BBC)
    Жанр: Документальный, Искусство, Биография
    Участники: Брайан Мэй, Фредди Меркьюри, Роджер Тейлор, Джон Дикон

    Описание

    Официальная биография Queen, приуроченная к 40-летнему юбилею легендарной группы. Над проектом работала непосредственно Queen Productions, что дало возможность включить в фильм десятки минут редких интервью Фредди Меркьюри и Джона Дикона, нарезки студийных сессий и комментарии людей, имевших к группе самое непосредственное отношение.

    Продолжительность: 01: 58: 38
    Качество видео: DVB
    Перевод: Двухголосый закадровый, профессиональный (ТК Культура)
    Субтитры: Русские, телетекст
    Видео: AVC/H.264, 720х576@1024x576, ~2663 Kbps
    Аудио: MP2, 2 ch, 192 Kbps

    Общее
    Идентификатор : 16 (0x10)
    Полное имя : Queen Days of Our Lives_2011.ts
    Формат : MPEG-TS
    Размер файла : 2, 49 Гбайт
    Продолжительность : 1 ч. 58 м.
    Режим общего битрейта : Переменный
    Общий поток : 3006 Кбит/сек
    Видео
    Идентификатор : 1061 (0x425)
    Идентификатор меню : 1060 (0x424)
    Формат : AVC
    Формат/Информация : Advanced Video Codec
    Профиль формата : Main@L3
    Настройки формата : CABAC/4 Ref Frames
    Параметр CABAC формата : Да
    Параметр RefFrames формата : 4 кадра
    Параметр GOP формата : M=4, N=28
    Идентификатор кодека : 27
    Продолжительность : 1 ч. 58 м.
    Битрейт : 2663 Кбит/сек
    Ширина : 720 пикселей
    Высота : 576 пикселей
    Соотношение сторон : 16: 9
    Частота кадров : 25, 000 кадров/сек
    Стандарт вещания : PAL
    Цветовое пространство : YUV
    Субдискретизация насыщенности : 4: 2: 0
    Битовая глубина : 8 бит
    Тип развёртки : Чересстрочная
    Метод сохранения типа развёртки : Раздельные поля
    Порядок развёртки : Верхнее поле первое
    Бит/(Пиксели*Кадры) : 0.257
    Размер потока : 2, 21 Гбайт (89%)
    Цветовой диапазон : Limited
    Основные цвета : BT.601 PAL
    Характеристики трансфера : BT.470 System B, BT.470 System G
    Коэффициенты матрицы : BT.470 System B, BT.470 System G
    Аудио
    Идентификатор : 1062 (0x426)
    Идентификатор меню : 1060 (0x424)
    Формат : MPEG Audio
    Версия формата : Version 1
    Профиль формата : Layer 2
    Идентификатор кодека : 4
    Продолжительность : 1 ч. 58 м.
    Вид битрейта : Постоянный
    Битрейт : 192 Кбит/сек
    Каналы : 2 канала
    Частота : 48, 0 КГц
    Метод сжатия : С потерями
    Задержка видео : 89 мс.
    Размер потока : 163 Мбайт (6%)
    Язык : std
    Язык, дополнительно : Clean effects
    Прочее #1
    Идентификатор : 1064 (0x428)-100
    Идентификатор меню : 1060 (0x424)
    Формат : Teletext
    Прочее #2
    Идентификатор : 1064 (0x428)-888
    Идентификатор меню : 1060 (0x424)
    Формат : Teletext
    Язык, дополнительно : Additional information page

    Скриншоты для ознакомления



    Все одноименные релизы в Клубе
    Время раздачи: Сб-Вс с 09: 00 до 23: 30 (до появления первых 3-5 скачавших)


    Queen: Дни нашей жизни/Queen: Days of Our Lives (2011) DVB (Серии 1-2 из 2)
    Рейтинг →
     (голосов: 1, оценка 3/5, голосовать можно 1 раз )

    Другие торренты по теме:

  • Queen: концерт на cтадионе Уэмбли / Queen: Live At Wembley Stadium [2xDVD9] (1986) DVD
  • Queen: История альбома "News of the World" / Queen: The story of "News of the World" (2017) HDTV [H.264 / 1080i-LQ]
  • Queen: Дни наших жизней / Queen: Days Of Our Lives (2011) BDRemux [H.264 / 1080i] (2 серии из 2) [MVO]
  • Нефертити. Загадка мумии царицы / Nefertiti. Mummy Queen Mystery (2011) SATRip
  • Tove Lo - Queen of the Clouds (2014) Deluxe Edition [MP3|320 кб / с]<Pop> скачать через торрент бесплатно
  • Королева Марго / La reine Margot / Queen Margot (1994) BDRip [H.264 / 720p-LQ] [Hi10P] [New Directors Cut]
  • Королева / Queen (2014) HDRip скачать через торрент бесплатно
  • Touhou Gensoutouge Saisoku Densetsu ~ Project DownHill Queen (2010) [FLAC|Lossless] <Touhou, Vocal, Instrumental, Doujin Ongaku, J-Pop, Electronic> скачать через торрент бесплатно


    • Комментарии (0):

      Информация

      Информация

        Посетители, находящиеся в группе Гости, не могут оставлять комментарии в данной новости.

        ↓ Меню




        ↓ Опрос

        Вы добавили сайт в закладки?
        Да
        Нет


        Top 10 за месяц (Передачи)

        6 Кадров (2006-2015) SATRip / WEBRip (сезоны 1-8, выпуски 1-321 из) + Дополнения

        (скачиваний: 48)
        Осторожно, Задов! Или похождения прапорщика (2004) DVDRip [H.264] (29 серий из 29)

        (скачиваний: 40)
        Мир наизнанку Бразилия / Світ навиворіт (2018) WEB-DLRip [H.264 / 1080p-LQ] (Сезон 10, серии 1-2 из ... ) Обновляемая

        (скачиваний: 19)
        Евгений Карташов | Студийная фотосъёмка с нуля + Бонусы (2016) PCRec [H.264 / 1080p]

        (скачиваний: 13)
        Русские евреи (2016-2017) HDTVRip [H.264 / 1080p-LQ]

        (скачиваний: 13)
        Ударная сила / Ударная сила (2002-2010) DVDRip скачать через торрент бесплатно

        (скачиваний: 11)
        Comedy Woman (2009-2015) SATRip / TVRip [Выпуск: 1-156] скачать через торрент бесплатно

        (скачиваний: 11)
        Comedy Club Exclusive (2013-2014) SATRip / WEB-DLRip [Выпуск: 1-60] скачать через торрент бесплатно

        (скачиваний: 11)
        Орел и решка. Морской сезон. По морям 2 (2018) WEB-DLRip (сезон 18, выпуск 1-3 из 20) (обновляемая)

        (скачиваний: 10)
        NG: Спасти планету. Леонардо ДиКаприо / Before the Flood. Leonardo DiCaprio (2016) HDTV [H.264 / 1080i-LQ]

        (скачиваний: 10)