.
Авторизация | Регистрация
Хочешь лучшие торренты? Добавь свой email!
Добавить

Торрент скачать бесплатно

  • support: webmaster@btracker.club
» » Флоренция и Галерея Уффици / Firenze e gli Uffizi (2015) BDRip [H.264 / 1080p] торрент скачать бесплатно


    Флоренция и Галерея Уффици / Firenze e gli Uffizi (2015) BDRip [H.264 / 1080p] торрент скачать бесплатно

    Опубликовал: fregat | Дата: 12-02-2018, 05:00 | .torrent скачали: 14

    Флоренция и Галерея Уффици / Firenze e gli Uffizi (2015) BDRip [H.264 / 1080p]Производство: Италия. Sky 3D, Magnitudo, Nexo Digital
    Жанр: Документальный, Архитектура, Искусство
    Режиссер: Лука Виотто
    Участники: Саймон Мерреллс, Антонио Натали, Марко Чатти, Артуро Галанзино

    Описание

    Неповторимое путешествие по городу, который когда-то был колыбелью, а сейчас является главным музеем Ренессанса. Этот поразительный город, который может по праву называться музеем под открытым небом, стал альма-матер для легендарных творцов — Микеланджело, Брунеллески, Рафаэля, Леонардо да Винчи и Сандро Боттичелли. Фильм дарит незабываемую встречу с главной итальянской сокровищницей, в которой собраны шедевры этих легендарных мастеров, — галереей Уффици.

    Возраст: 12+ (зрителям, достигшим 12 лет)
    Продолжительность: 01: 30: 58
    Качество видео: BDRip
    Перевод: Одноголосый закадровый, профессиональный
    Субтитры: отсутствуют
    Видео: AVC/H.264, 1920x1040, ~11, 5 mbps
    Аудио 1: AC3, 6 ch, 448 kbps | Русский - AVO (СВ-Дубль (телеканал Культура)
    Аудио 2: AC3, 6 ch, 448 kbps | Английский

    Общее
    Уникальный идентификатор : 200220670651945958147716063780157999969 (0x96A11937E946AB29978EEC13D7034B61)
    Полное имя : J: ДокументальныеФлоренция и Галерея УффициФлоренция и Галерея Уффици. 2015.mkv
    Формат : Matroska
    Версия формата : Version 4/Version 2
    Размер файла : 7, 87 Гбайт
    Продолжительность : 1 ч. 30 м.
    Общий поток : 12, 4 Мбит/сек
    Название фильма : Release for Topmost
    Дата кодирования : UTC 2018-02-11 04: 51: 53
    Программа кодирования : mkvmerge v6.2.0 (\'Promised Land\') built on Apr 28 2013 12: 22: 01
    Библиотека кодирования : libebml v1.3.0 + libmatroska v1.4.0
    Attachment : Yes
    Видео
    Идентификатор : 1
    Формат : AVC
    Формат/Информация : Advanced Video Codec
    Профиль формата : High@L4.1
    Параметр CABAC формата : Да
    Параметр ReFrames формата : 4 кадра
    Идентификатор кодека : V_MPEG4/ISO/AVC
    Продолжительность : 1 ч. 30 м.
    Битрейт : 11, 5 Мбит/сек
    Ширина : 1920 пикселей
    Высота : 1040 пикселей
    Соотношение сторон : 1, 85: 1
    Режим частоты кадров : Постоянный
    Частота кадров : 23, 976 кадра/сек
    Цветовое пространство : YUV
    Субдискретизация насыщенности : 4: 2: 0
    Битовая глубина : 8 бит
    Тип развёртки : Прогрессивная
    Бит/(Пиксели*Кадры) : 0.240
    Размер потока : 7, 15 Гбайт (91%)
    Заголовок : Флоренция и Галерея Уффици. 2015 (Release for Topmost)
    Библиотека кодирования : x264 core 146 r2538 121396c
    Настройки программы : cabac=1/ref=4/deblock=1: -3: -3/analyse=0x3: 0x113/me=umh/subme=11/psy=1/psy_rd=1.00: 0.15/mixed_ref=1/me_range=32/chroma_me=1/trellis=2/8x8dct=1/cqm=0/deadzone=21, 11/fast_pskip=0/chroma_qp_offset=-3/threads=12/lookahead_threads=2/sliced_threads=0/nr=0/decimate=0/interlaced=0/bluray_compat=0/constrained_intra=0/bframes=8/b_pyramid=2/b_adapt=2/b_bias=0/direct=3/weightb=1/open_gop=0/weightp=2/keyint=240/keyint_min=23/scenecut=40/intra_refresh=0/rc_lookahead=40/rc=2pass/mbtree=1/bitrate=11500/ratetol=1.0/qcomp=0.60/qpmin=0/qpmax=69/qpstep=4/cplxblur=20.0/qblur=0.5/ip_ratio=1.40/aq=1: 0.90
    Язык : Italian
    Default : Да
    Forced : Нет
    Аудио #1
    Идентификатор : 2
    Формат : AC-3
    Формат/Информация : Audio Coding 3
    Расширение режима : CM (complete main)
    Параметр Endianness формата : Big
    Идентификатор кодека : A_AC3
    Продолжительность : 1 ч. 30 м.
    Вид битрейта : Постоянный
    Битрейт : 448 Кбит/сек
    Каналы : 6 каналов
    Расположение каналов : Front: L C R, Side: L R, LFE
    Частота : 48, 0 КГц
    Битовая глубина : 16 бит
    Метод сжатия : С потерями
    Размер потока : 292 Мбайт (4%)
    Заголовок : AC3, 6 ch, 448 kbps - AVO (СВ-Дубль (телеканал Культура)
    Язык : Russian
    Default : Да
    Forced : Нет
    Аудио #2
    Идентификатор : 3
    Формат : AC-3
    Формат/Информация : Audio Coding 3
    Расширение режима : CM (complete main)
    Параметр Endianness формата : Big
    Идентификатор кодека : A_AC3
    Продолжительность : 1 ч. 30 м.
    Вид битрейта : Постоянный
    Битрейт : 448 Кбит/сек
    Каналы : 6 каналов
    Расположение каналов : Front: L C R, Side: L R, LFE
    Частота : 48, 0 КГц
    Битовая глубина : 16 бит
    Метод сжатия : С потерями
    Размер потока : 292 Мбайт (4%)
    Заголовок : AC3, 6 ch, 448 kbps
    Язык : English
    Default : Нет
    Forced : Нет

    Скриншоты для ознакомления





    Все одноименные релизы в Клубе
    Время раздачи: 24/7 до 5 скачавших (до появления первых 3-5 скачавших)


    Флоренция и Галерея Уффици/Firenze e gli Uffizi (2015) BDRip [H.264/1080p]
    Рейтинг →
     (голосов: 1, оценка 4/5, голосовать можно 1 раз )

    Другие торренты по теме:

  • Флоренция и Галерея Уффици 3D / Firenze e gli Uffizi 3D / 4K (2015) Blu-ray 3D / 2D [H.264 / 1080p] [Custom] [VO]
  • Флоренция и Галерея Уффици 3D / Firenze e gli Uffizi 3D (2015) BDRip [H.264 / 1080p-LQ] [Вертикальная анаморфная стереопара] [PR]
  • Флоренция и Галерея Уффици 3D / Firenze e gli Uffizi 3D (2015) BDRip [H.264 / 1080p] [Вертикальная анаморфная стереопара]


    • Комментарии (0):

      Информация

      Информация

        Посетители, находящиеся в группе Гости, не могут оставлять комментарии в данной новости.

        ↓ Меню




        ↓ Опрос

        Вы добавили сайт в закладки?
        Да
        Нет


        Top 10 за месяц (Передачи)