.
Авторизация | Регистрация
Хочешь лучшие торренты? Добавь свой email!
Добавить

Торрент скачать бесплатно

  • support: webmaster@btracker.club
» » На линии огня / Line of Fire (1999 - 2002) SATRip (39 выпусков) торрент скачать бесплатно


    На линии огня / Line of Fire (1999 - 2002) SATRip (39 выпусков) торрент скачать бесплатно

    Опубликовал: fregat | Дата: 4-02-2018, 05:00 | .torrent скачали: 23

    На линии огня / Line of Fire (1999 - 2002) SATRip (39 выпусков)Производство: Великобритания, Cromwell Productions Ltd.
    Жанр: Документально-постановочный, история, военное дело, исследования
    Режиссер: Грэхэм Холлоуэй
    Участники: Дункан Андерсон, Ллойд Кларк, Кристофер Кент

    Описание

    Сериал с помощью компьютерной графики исследует и восстанавливает исторические битвы за последние 2000 лет. Теперь мы можем увидеть картины самых значимых сражений прошлого, восстановленных виртуально, и даже оказаться на месте полководцев обеих противоборствующих сторон. Каждый эпизод содержит интервью ведущих военных историков, компьютерную анимацию тактических схем сражений и восстановленные костюмированные сцены, среди которых Ватерлоо, битва при Гастингсе, Битва за Берлин, Сталинградская битва, Бородино, Аустерлиц и многие другие…
    В релиз частично включены фильмы из серии Великие сражения, которые образуют наиболее полное исследование военной истории от времён Римской Империи до кровавых событий Второй Мировой Войны. Исторические события представлены в виде реконструированных, динамичных и полных действия фильмов о том, как военные конфликты в разное время и в разных концах света изменили ход истории и привели устройство мира к тому, что мы имеем сегодня…
    Каждый эпизод посвящен отдельному сражению и связанным с ним историческим событиям, среди них: Наполеоновская кампания 1812 года, английские гражданские войны, Трафальгар, зулусские войны, войны викингов, крестовые походы, галльские войны, блицкриг 1941 и многие другие…

    Релиз от: skorpionN
    Продолжительность: серии x ~ 00: 48: 00
    Качество видео: SATRip
    Перевод: Одноголосый закадровый, профессиональный (Видео Продакшн XXI век)
    Субтитры: отсутствуют
    Видео: DivX 5, 720х576@870x576, ~2000 Kbps
    Аудио: AC3, 2 ch, 192 kbps

    Общее
    Полное имя : F: КИНОLine of FireThe Kaisers Battle 1918.avi
    Формат : AVI
    Формат/Информация : Audio Video Interleave
    Размер файла : 777 Мбайт
    Продолжительность : 49 м. 18 с.
    Общий поток : 2202 Кбит/сек
    Программа кодирования : VirtualDubMod 1.5.10.3 |www.virtualdub-fr.org|| (build 2550/release)
    Библиотека кодирования : VirtualDubMod build 2550/release
    Видео
    Идентификатор : 0
    Формат : MPEG-4 Visual
    Профиль формата : Advanced Simple@L5
    Настройки формата : BVOP2
    Параметр BVOP формата : 2
    Параметр QPel формата : Нет
    Параметр GMC формата : Без точки перехода
    Параметр матрицы формата : Default (H.263)
    Идентификатор кодека : DX50
    Идентификатор кодека/Подсказка : DivX 5
    Продолжительность : 49 м. 18 с.
    Битрейт : 2000 Кбит/сек
    Ширина : 720 пикселей
    Высота : 576 пикселей
    Соотношение сторон : 3: 2
    Частота кадров : 25, 000 кадров/сек
    Стандарт вещания : PAL
    Цветовое пространство : YUV
    Субдискретизация насыщенности : 4: 2: 0
    Битовая глубина : 8 бит
    Тип развёртки : Прогрессивная
    Метод сжатия : С потерями
    Бит/(Пиксели*Кадры) : 0.193
    Размер потока : 705 Мбайт (91%)
    Библиотека кодирования : XviD 1.2.1 (UTC 2008-12-04)
    Аудио
    Идентификатор : 1
    Формат : AC-3
    Формат/Информация : Audio Coding 3
    Идентификатор кодека : 2000
    Продолжительность : 49 м. 18 с.
    Вид битрейта : Постоянный
    Битрейт : 192 Кбит/сек
    Каналы : 2 канала
    Расположение каналов : Front: L R
    Частота : 48, 0 КГц
    Частота кадров : 31, 250 кадров/сек (1536 SPF)
    Битовая глубина : 16 бит
    Метод сжатия : С потерями
    Размер потока : 67, 7 Мбайт (9%)
    Выравнивание : Разделение по промежуткам
    Продолжительность промежутка : 40 мс. (1, 00 видеокадр)
    Время предзагрузки промежутка : 500 мс.
    ServiceKind/String : Complete Main


    На линии огня/Line of Fire (1999 - 2002) SATRip (39 выпусков)
    Рейтинг →
     (голосов: 1, оценка 3/5, голосовать можно 1 раз )

    Другие торренты по теме:

  • На линии огня / In the Line of Fire (1993) BDRemux [1080p]
  • Донбасс. На линии огня (2015) HDTV [H.264 / 1080i] скачать через торрент бесплатно
  • Донбасс. На линии огня (2014-2015) WEB-DLRip (серии 1-10 + бонусы) (обновляемая) скачать через торрент бесплатно
  • Донбасс. На линии огня (2014-2016) WEB-DLRip (серии 1-10 + бонусы) (обновляемая)
  • Сергей Кузин | На линии огня. Искусство отвечать на провокационные вопросы (2016) [FB2]
  • На линии огня / In The Line Of Fire (1993) BDRip [H.264 / 720p]
  • На линии огня / In the Line of Fire (1993) BDRip [H.264 / 1080p-LQ]
  • Сергей Кузин | На линии огня. Искусство отвечать на провокационные вопросы (2018) [MP3]


    • Комментарии (0):

      Информация

      Информация

        Посетители, находящиеся в группе Гости, не могут оставлять комментарии в данной новости.

        ↓ Меню




        ↓ Опрос

        Вы добавили сайт в закладки?
        Да
        Нет


        Top 10 за месяц (Передачи)