.
Авторизация | Регистрация
Хочешь лучшие торренты? Добавь свой email!
Добавить

Торрент скачать бесплатно

  • support: webmaster@btracker.club
» » Уральские пельмени. 50 оттенков загорелого (2017.10.27) WEB-DL [H.264 / 720p-LQ] торрент скачать бесплатно


    Уральские пельмени. 50 оттенков загорелого (2017.10.27) WEB-DL [H.264 / 720p-LQ] торрент скачать бесплатно

    Опубликовал: fregat | Дата: 28-10-2017, 05:00 | .torrent скачали: 22

    Уральские пельмени. 50 оттенков загорелого (2017.10.27) WEB-DL [H.264 / 720p-LQ]Телекомпания: СТС
    Жанр: Юмор
    В ролях: Дмитрий Брекоткин, Сергей Ершов, Сергей Исаев, Сергей Калугин, Вячеслав Мясников, Александр Попов, Андрей Рожков, Дмитрий Соколов, Максим Ярица, Юля Михалкова и др.

    Описание

    Весёлые парни в мандариновых рубашках не дадут соскучиться и подарят отличное настроение всей семье. У юмора Уральских пельменей нет возрастных ограничений, они избегают шуток ниже пояса и на их концертах пятилетние дети смеются рядом с 50-ти летними взрослыми. Новое комедийное шоу включает в себя как самостоятельные сценические истории, так и импровизации с залом, а также смешные сценки со звёздами, которые пришли посмотреть на любимую команду и неожиданно для себя оказались на сцене.

    Возраст: 12+ (зрителям, достигшим 12 лет)
    Релиз от: svlesin
    Продолжительность: 01: 12: 06
    Качество видео: WEB-DL
    Субтитры: Отсутствуют
    Видео: AVC, 1280x720 (16: 9), 25.000 fps, 2 133 Kbps (0.093 bit/pixel)
    Аудио: AC-3, 44.1 KHz, 1 ch, 128 Kbps, CBR
    Код: выделить все
    Общее
    Уникальный идентификатор : 240426146592897501140468575620016857767 (0xB4E0643A3DBCFB909A309C3D905362A7)
    Полное имя : D:[1]Уральские пельмениУральские пельмени. 50 оттенков загорелого (2017.10.27)_720.mkv
    Формат : Matroska
    Версия формата : Version 4/Version 2
    Размер файла : 1, 19 Гбайт
    Продолжительность : 1 ч. 12 м.
    Общий поток : 2373 Кбит/сек
    Название фильма : Уральские пельмени. 50 оттенков загорелого (2017.10.27)_720_nnm-club.name
    Дата кодирования : UTC 2017-10-27 18:22:30
    Программа кодирования : mkvmerge v17.0.0 ('Be Ur Friend') 64-bit
    Библиотека кодирования : libebml v1.3.5 + libmatroska v1.4.8
    DURATION : 01:12:06.226000000
    NUMBER_OF_FRAMES : 124210
    NUMBER_OF_BYTES : 103829420
    _STATISTICS_WRITING_APP : mkvmerge v17.0.0 ('Be Ur Friend') 64-bit
    _STATISTICS_WRITING_DATE_UTC : 2017-10-27 18:22:30
    _STATISTICS_TAGS : BPS DURATION NUMBER_OF_FRAMES NUMBER_OF_BYTES
    Видео
    Идентификатор : 1
    Формат : AVC
    Формат/Информация : Advanced Video Codec
    Профиль формата :Main@L3.1
    Параметр CABAC формата : Да
    Параметр ReFrames формата : 3 кадра
    Идентификатор кодека : V_MPEG4/ISO/AVC
    Продолжительность : 1 ч. 12 м.
    Битрейт : 2133 Кбит/сек
    Ширина : 1280 пикселей
    Высота : 720 пикселей
    Соотношение сторон : 16:9
    Режим частоты кадров : Постоянный
    Частота кадров : 25, 000 кадров/сек
    Цветовое пространство : YUV
    Субдискретизация насыщенности : 4:2:0
    Битовая глубина : 8 бит
    Тип развёртки : Прогрессивная
    Бит/(Пиксели*Кадры) : 0.093
    Размер потока : 1, 07 Гбайт (90%)
    Default : Да
    Forced : Нет
    Цветовой диапазон : Limited
    Основные цвета : BT.709
    Характеристики трансфера : BT.709
    Коэффициенты матрицы : BT.709
    Аудио
    Идентификатор : 2
    Формат : AC-3
    Формат/Информация : Audio Coding 3
    Расширение режима : CM (complete main)
    Параметр Endianness формата : Big
    Идентификатор кодека : A_AC3
    Продолжительность : 1 ч. 12 м.
    Вид битрейта : Постоянный
    Битрейт : 192 Кбит/сек
    Каналы : 2 канала
    Расположение каналов : Front: L R
    Частота : 44, 1 КГц
    Битовая глубина : 16 бит
    Метод сжатия : С потерями
    Размер потока : 99, 0 Мбайт (8%)
    Default : Да
    Forced : Нет
    Не пропусти новое шоу:
    Днем они плавают в море, а вечером в сметане Они восставшие из Адлера и утомленные чартером Уходя они выключают олинклюзив, а шенгены у них в генах Они научат вас правильно отдыхать в новой курортной программе 50 оттенков загорелого.

    Скриншоты для ознакомления



    Все одноименные релизы в Клубе
    Время раздачи: 24/7. До первых 5 скачавших.


    Уральские пельмени. 50 оттенков загорелого (2017.10.27) WEB-DL [H.264/720p-LQ]
    Рейтинг →
     (голосов: 1, оценка 4/5, голосовать можно 1 раз )

    Другие торренты по теме:

  • Уральские пельмени (2003-2014.12.12) SATRip [Обновляемая] скачать через торрент бесплатно
  • Уральские пельмени. Виза есть - ума не надо (2014.12.12) WEB-DL [H.264 / 1080p-LQ] скачать через торрент бесплатно
  • Уральские пельмени. Виза есть - ума не надо (2014.12.12) WEB-DLRip [H.264 / 720p]
  • Уральские пельмени. Волшебники страны ОЙ! (2014.12.19) WEB-DLRip [H.264 / 720p-LQ]
  • Уральские пельмени. Волшебники страны ОЙ! (2014.12.19) SATRip
  • Уральские пельмени. Музыка нас слизала (2014.12.26) WEBRip [H.264 / 720p] скачать через торрент бесплатно
  • Уральские пельмени. Музыка нас слизала (2014.12.26) SATRip скачать через торрент бесплатно
  • Уральские пельмени. Волшебники страны ОЙ! (2014.12.19) WEB-DLRip [H.264 / 1080p-LQ] скачать через торрент бесплатно


    • Комментарии (0):

      Информация

      Информация

        Посетители, находящиеся в группе Гости, не могут оставлять комментарии в данной новости.

        ↓ Меню




        ↓ Опрос

        Вы добавили сайт в закладки?
        Да
        Нет


        Top 10 за месяц (Передачи)

        6 Кадров (2006-2015) SATRip / WEBRip (сезоны 1-8, выпуски 1-321 из) + Дополнения

        (скачиваний: 48)
        Осторожно, Задов! Или похождения прапорщика (2004) DVDRip [H.264] (29 серий из 29)

        (скачиваний: 40)
        Мир наизнанку Бразилия / Світ навиворіт (2018) WEB-DLRip [H.264 / 1080p-LQ] (Сезон 10, серии 1-2 из ... ) Обновляемая

        (скачиваний: 19)
        Евгений Карташов | Студийная фотосъёмка с нуля + Бонусы (2016) PCRec [H.264 / 1080p]

        (скачиваний: 13)
        Русские евреи (2016-2017) HDTVRip [H.264 / 1080p-LQ]

        (скачиваний: 13)
        Ударная сила / Ударная сила (2002-2010) DVDRip скачать через торрент бесплатно

        (скачиваний: 11)
        Comedy Woman (2009-2015) SATRip / TVRip [Выпуск: 1-156] скачать через торрент бесплатно

        (скачиваний: 11)
        Comedy Club Exclusive (2013-2014) SATRip / WEB-DLRip [Выпуск: 1-60] скачать через торрент бесплатно

        (скачиваний: 11)
        Орел и решка. Морской сезон. По морям 2 (2018) WEB-DLRip (сезон 18, выпуск 1-3 из 20) (обновляемая)

        (скачиваний: 10)
        NG: Спасти планету. Леонардо ДиКаприо / Before the Flood. Leonardo DiCaprio (2016) HDTV [H.264 / 1080i-LQ]

        (скачиваний: 10)