.
Авторизация | Регистрация

Торрент скачать бесплатно

  • support: webmaster@btracker.club
» » Рождённый стать королём / The Kid Who Would Be King (2019) BDRip [720p] ATV торрент скачать бесплатно


    Рождённый стать королём / The Kid Who Would Be King (2019) BDRip [720p] ATV торрент скачать бесплатно

    Дата: 21-04-2019, 05:00 | .torrent скачали: 0

    Рождённый стать королём / The Kid Who Would Be King (2019) BDRip [720p] ATVПроизводство : Великобритания, США/Big Talk Productions, TSG Entertainment, Working Title Films
    Жанр : Фэнтези, боевик, приключения, семейный
    Режиссер : Джо Корниш
    Продюсер : Тим Беван, Эрик Феллнер, Найра Парк
    Актеры : Луис Эшборн Серкис, Денис Гоф, Дин Чауму, Том Тейлор, Рианна Доррис, Нэйтан Стюарт-Джарретт, Нома Думезвени, Ребекка Фергюсон, Марк Боннар, Энгус Имри
    Описание : Повседневные проблемы 12-летнего Алекса отходят на второй план после того, как он находит легендарный Экскалибур. И теперь, когда меч короля Артура оказывается в руках самого неудачливого подростка в Британии, начинается грандиозное приключение, в ходе которого Алекс и его друзья должны остановить злую средневековую волшебницу Моргану и не дать ей уничтожить мир.

    Возраст: 6+ (зрителям, достигшим 6 лет)
    Рейтинг MPAA: PG Рекомендуется присудствие родителей
    Дата мировой премьеры: 16 января 2019
    Дата российской премьеры: 14 марта 2019, Двадцатый Век Фокс СНГ
    Цифровой релиз : 19 апреля 2019, Двадцатый Век Фокс СНГ
    Релиз от: Kosatka
    Продолжительность : 02: 00: 08
    Качество видео : BDRip 720p
    Перевод: Дублированный(iTunes)
    Субтитры: Русские (Forced, Full), Украинские (Forced, Full), Английские (Full, SDH)
    Видео: H.264, 1280x544, 3 500 Kbps, 23.976 fps
    Аудио 1 : AAC LC, 2.0 ch, 160 Kbps | Русский
    Аудио 2 : AAC LC, 2.0 ch, 160 Kbps | Украинский
    Аудио 3 : AAC LC, 2.0 ch, 160 Kbps | Английский
    Аудио 4 : AC-3, 6 ch, 384 Kbps | Русский
    Аудио 5 : AC-3, 6 ch, 640 Kbps | Английский

    Sort Name: Kid Who Would Be King
    XID: Apple: vendor_id: 2019-1044981
    contentID: 1449202253
    Copyright: © 2019 Twentieth Century Fox Film Corporation. All rights reserved.
    Screenwriters: Джо Корниш
    Producers: Тим Беван, Эрик Феллнер, Найра Парк
    Director: Джо Корниш
    Cast: Луис Эшборн Серкис, Денис Гоф, Дин Чауму, Том Тейлор, Рианна Доррис, Нэйтан Стюарт-Джарретт, Нома Думезвени, Ребекка Фергюсон, Марк Боннар, Энгус Имри
    Studio: © 2019 ООО Централ Партнершип Сейлз Хаус
    Rating Annotation: Rated PG for fantasy action violence, scary images, thematic elements including some bullying, and language.
    Rating: 3
    Long Description: Повседневные проблемы 12-летнего Алекса отходят на второй план после того, как он находит легендарный Экскалибур. И теперь, когда меч короля Артура оказывается в руках самого неудачливого подростка в Британии, начинается грандиозное приключение, в ходе которого Алекс и его друзья должны остановить злую средневековую волшебницу Моргану и не дать ей уничтожить мир.
    Description: Повседневные проблемы 12-летнего Алекса отходят на второй план после того, как он находит легендарный Экскалибур. И теперь, когда меч короля Артура оказывается в руках самого неудачливого подростка в Британии, начинается грандиозное приключение, в ходе которого Алекс и его друзья должны остановить злую средневековую волшебницу Моргану и не дать ей уничтожить мир.
    Release Date: 2019-01-16T08: 00: 00Z
    Genre: Kids Family
    Artist: Joe Cornish
    Name: The Kid Who Would Be King

    General
    Complete name : /Users/imac/HandBrake/The.Kid.Who.Would.Be.King.720p.HD.m4v
    Format : MPEG-4
    Codec ID : M4V (M4V /M4A /mp42/isom)
    File size : 4.19 GiB
    Duration : 2h 0mn
    Overall bit rate mode : Variable
    Overall bit rate : 4 991 Kbps
    Movie name : The Kid Who Would Be King
    Performer : Joe Cornish
    Director : Джо Корниш
    Actor : Луис Эшборн Серкис/Денис Гоф/Дин Чауму/Том Тейлор/Рианна Доррис/Нэйтан Стюарт-Джарретт/Нома Думезвени/Ребекка Фергюсон/Марк Боннар/Энгус Имри
    Screenplay by : Джо Корниш
    Producer : Тим Беван/Эрик Феллнер/Найра Парк
    Production studio : © 2019 ООО Централ Партнершип Сейлз Хаус
    Genre : Kids Family
    ContentType : Short Film
    Description : Повседневные проблемы 12-летнего Алекса отходят на второй план после того, как он находит легендарный Экскалибур. И теперь, когда меч короля Артура оказывается в руках самого неудачливого подростка в Британии, начинается грандиозное приключение, в ходе которого Алекс и его друзья должны остановить злую средневековую волшебницу Моргану и не дать ей уничтожить мир.
    Recorded date : UTC 2019-01-16 08: 00: 00
    Encoded date : UTC 2019-04-20 16: 44: 11
    Tagged date : UTC 2019-04-20 16: 47: 13
    Copyright : © 2019 Twentieth Century Fox Film Corporation. All rights reserved.
    Cover : Yes
    Rating : None
    Title/Sort : Kid Who Would Be King
    LongDescription : Повседневные проблемы 12-летнего Алекса отходят на второй план после того, как он находит легендарный Экскалибур. И теперь, когда меч короля Артура оказывается в руках самого неудачливого подростка в Британии, начинается грандиозное приключение, в ходе которого Алекс и его друзья должны остановить злую средневековую волшебницу Моргану и не дать ей уничтожить мир.
    HDVideo : Yes
    AppleStoreCatalogID : 1449202253
    Vendor : Apple: vendor_id: 2019-1044981
    ContentRating : mpaa|PG|200|Rated PG for fantasy action violence, scary images, thematic elements including some bullying, and language.
    Video #1
    ID : 1
    Format : AVC
    Format/Info : Advanced Video Codec
    Format profile : High@L3.1
    Format settings : 3 Ref Frames
    Format settings, CABAC : No
    Format settings, ReFrames : 3 frames
    Codec ID : avc1
    Codec ID/Info : Advanced Video Coding
    Duration : 2h 0mn
    Bit rate : 3 500 Kbps
    Width : 1 280 pixels
    Height : 544 pixels
    Display aspect ratio : 2.35: 1
    Frame rate mode : Variable
    Frame rate : 23.976 (24000/1001) fps
    Minimum frame rate : 23.974 fps
    Maximum frame rate : 23.981 fps
    Color space : YUV
    Chroma subsampling : 4: 2: 0
    Bit depth : 8 bits
    Scan type : Progressive
    Bits/(Pixel*Frame) : 0.210
    Stream size : 2.92 GiB (70%)
    Title : Main Program
    Writing library : x264 core 157 r2935 545de2f
    Encoding settings : cabac=0/ref=3/deblock=1: -3: -3/analyse=0x3: 0x113/me=umh/subme=9/psy=1/psy_rd=1.00: 0.15/mixed_ref=1/me_range=32/chroma_me=1/trellis=0/8x8dct=1/cqm=0/deadzone=21, 11/fast_pskip=0/chroma_qp_offset=-2/threads=17/lookahead_threads=1/sliced_threads=0/nr=0/decimate=0/interlaced=0/bluray_compat=0/constrained_intra=0/bframes=3/b_pyramid=0/b_adapt=2/b_bias=0/direct=1/weightb=0/open_gop=0/weightp=0/keyint=240/keyint_min=24/scenecut=40/intra_refresh=0/rc_lookahead=40/rc=2pass/mbtree=1/bitrate=3500/ratetol=1.0/qcomp=0.65/qpmin=0/qpmax=69/qpstep=4/cplxblur=20.0/qblur=0.5/vbv_maxrate=9500/vbv_bufsize=9500/nal_hrd=none/filler=0/ip_ratio=1.40/aq=1: 1.10
    Language : English
    Encoded date : UTC 2019-04-20 16: 44: 11
    Tagged date : UTC 2019-04-20 16: 44: 21
    Color range : Limited
    Color primaries : BT.709
    Transfer characteristics : BT.709
    Matrix coefficients : BT.709
    Menus : 13, 14
    Codec configuration box : avcC
    Video #2
    ID : 14
    Format : JPEG
    Codec ID : jpeg
    Duration : 2h 0mn
    Bit rate mode : Variable
    Bit rate : 788 bps
    Width : 640 pixels
    Height : 272 pixels
    Display aspect ratio : 2.35: 1
    Frame rate mode : Variable
    Frame rate : 0.003 fps
    Minimum frame rate : 0.002 fps
    Maximum frame rate : 0.007 fps
    Color space : YUV
    Chroma subsampling : 4: 2: 0
    Bit depth : 8 bits
    Compression mode : Lossy
    Bits/(Pixel*Frame) : 1.509
    Stream size : 770 KiB (0%)
    Title : Chapter Images
    Language : English
    Default : No
    Encoded date : UTC 2019-04-20 16: 45: 29
    Tagged date : UTC 2019-04-20 16: 45: 30
    Menu For : 1
    ColorSpace_ICC : RGB
    Audio #1
    ID : 2
    Format : AAC LC
    Format/Info : Advanced Audio Codec Low Complexity
    Codec ID : mp4a-40-2
    Duration : 2h 0mn
    Source duration : 2h 0mn
    Bit rate mode : Variable
    Bit rate : 157 Kbps
    Maximum bit rate : 246 Kbps
    Channel(s) : 2 channels
    Channel layout : L R
    Sampling rate : 48.0 KHz
    Frame rate : 46.875 fps (1024 SPF)
    Compression mode : Lossy
    Stream size : 135 MiB (3%)
    Source stream size : 135 MiB (3%)
    Title : Russian Stereo
    Language : Russian
    Default : Yes
    Alternate group : 1
    Encoded date : UTC 2019-04-20 16: 44: 11
    Tagged date : UTC 2019-04-20 16: 45: 24
    Fallback From : 5
    Subtitles : 7, 9
    Audio #2
    ID : 3
    Format : AAC LC
    Format/Info : Advanced Audio Codec Low Complexity
    Codec ID : mp4a-40-2
    Duration : 2h 0mn
    Source duration : 2h 0mn
    Bit rate mode : Variable
    Bit rate : 156 Kbps
    Maximum bit rate : 282 Kbps
    Channel(s) : 2 channels
    Channel layout : L R
    Sampling rate : 48.0 KHz
    Frame rate : 46.875 fps (1024 SPF)
    Compression mode : Lossy
    Stream size : 134 MiB (3%)
    Source stream size : 134 MiB (3%)
    Title : Ukrainian Stereo
    Language : Ukrainian
    Default : No
    Alternate group : 1
    Encoded date : UTC 2019-04-20 16: 44: 11
    Tagged date : UTC 2019-04-20 16: 45: 24
    Subtitles : 8, 10
    Audio #3
    ID : 4
    Format : AAC LC
    Format/Info : Advanced Audio Codec Low Complexity
    Codec ID : mp4a-40-2
    Duration : 2h 0mn
    Source duration : 2h 0mn
    Bit rate mode : Variable
    Bit rate : 158 Kbps
    Maximum bit rate : 251 Kbps
    Channel(s) : 2 channels
    Channel layout : L R
    Sampling rate : 48.0 KHz
    Frame rate : 46.875 fps (1024 SPF)
    Compression mode : Lossy
    Stream size : 136 MiB (3%)
    Source stream size : 136 MiB (3%)
    Title : English Stereo
    Language : English
    Default : No
    Alternate group : 1
    Encoded date : UTC 2019-04-20 16: 44: 11
    Tagged date : UTC 2019-04-20 16: 45: 24
    Fallback From : 6
    Audio #4
    ID : 5
    Format : AC-3
    Format/Info : Audio Coding 3
    Commercial name : Dolby Digital
    Codec ID : ac-3
    Duration : 2h 0mn
    Bit rate mode : Constant
    Bit rate : 384 Kbps
    Channel(s) : 6 channels
    Channel layout : L R C LFE Ls Rs
    Sampling rate : 48.0 KHz
    Frame rate : 31.250 fps (1536 SPF)
    Bit depth : 16 bits
    Compression mode : Lossy
    Stream size : 330 MiB (8%)
    Title : Russian DD 5.1
    Language : Russian
    Service kind : Complete Main
    Default : Inherited From: 2
    Alternate group : 1
    Encoded date : UTC 2019-04-20 16: 44: 11
    Tagged date : UTC 2019-04-20 16: 45: 24
    Fallback To : 2
    Subtitles : 7, 9
    Audio #5
    ID : 6
    Format : AC-3
    Format/Info : Audio Coding 3
    Commercial name : Dolby Digital
    Codec ID : ac-3
    Duration : 2h 0mn
    Bit rate mode : Constant
    Bit rate : 640 Kbps
    Channel(s) : 6 channels
    Channel layout : L R C LFE Ls Rs
    Sampling rate : 48.0 KHz
    Frame rate : 31.250 fps (1536 SPF)
    Bit depth : 16 bits
    Compression mode : Lossy
    Stream size : 550 MiB (13%)
    Title : English DD 5.1
    Language : English
    Service kind : Complete Main
    Default : No
    Alternate group : 1
    Encoded date : UTC 2019-04-20 16: 44: 11
    Tagged date : UTC 2019-04-20 16: 45: 24
    Fallback To : 4
    Text #1
    ID : 7
    Format : Timed Text
    Muxing mode : sbtl
    Codec ID : tx3g
    Duration : 2h 0mn
    Bit rate mode : Variable
    Bit rate : 1 bps
    Stream size : 1.24 KiB (0%)
    Title : Russian forced
    Language : Russian
    Default : Yes
    Forced : Yes
    Alternate group : 2
    Encoded date : UTC 2019-04-20 16: 44: 11
    Tagged date : UTC 2019-04-20 16: 45: 10
    Subtitles For : 2, 5
    Full Alternative : 9
    Text #2
    ID : 8
    Format : Timed Text
    Muxing mode : sbtl
    Codec ID : tx3g
    Duration : 2h 0mn
    Bit rate mode : Variable
    Bit rate : 1 bps
    Stream size : 631 Bytes (0%)
    Title : Ukrainian forced
    Language : Ukrainian
    Default : No
    Forced : Yes
    Alternate group : 2
    Encoded date : UTC 2019-04-20 16: 44: 11
    Tagged date : UTC 2019-04-20 16: 45: 10
    Subtitles For : 3
    Full Alternative : 10
    Text #3
    ID : 9
    Format : Timed Text
    Muxing mode : sbtl
    Codec ID : tx3g
    Duration : 2h 0mn
    Bit rate mode : Variable
    Bit rate : 94 bps
    Stream size : 83.0 KiB (0%)
    Title : Russian full
    Language : Russian
    Default : No
    Forced : No
    Alternate group : 2
    Encoded date : UTC 2019-04-20 16: 44: 11
    Tagged date : UTC 2019-04-20 16: 45: 20
    Subtitles For : 2, 5
    Forced Alternative : 7
    Text #4
    ID : 10
    Format : Timed Text
    Muxing mode : sbtl
    Codec ID : tx3g
    Duration : 2h 0mn
    Bit rate mode : Variable
    Bit rate : 88 bps
    Stream size : 77.1 KiB (0%)
    Title : Ukrainian full
    Language : Ukrainian
    Default : No
    Forced : No
    Alternate group : 2
    Encoded date : UTC 2019-04-20 16: 44: 11
    Tagged date : UTC 2019-04-20 16: 45: 20
    Subtitles For : 3
    Forced Alternative : 8
    Text #5
    ID : 11
    Format : Timed Text
    Muxing mode : sbtl
    Codec ID : tx3g
    Duration : 2h 0mn
    Bit rate mode : Variable
    Bit rate : 60 bps
    Stream size : 52.8 KiB (0%)
    Title : English full
    Language : English
    Default : No
    Forced : No
    Alternate group : 2
    Encoded date : UTC 2019-04-20 16: 44: 11
    Tagged date : UTC 2019-04-20 16: 45: 20
    Text #6
    ID : 12
    Format : Timed Text
    Muxing mode : sbtl
    Codec ID : tx3g
    Duration : 2h 0mn
    Bit rate mode : Variable
    Bit rate : 72 bps
    Stream size : 63.5 KiB (0%)
    Title : English SDH
    Language : English
    Default : No
    Forced : No
    Alternate group : 2
    Encoded date : UTC 2019-04-20 16: 44: 11
    Tagged date : UTC 2019-04-20 16: 45: 20
    Menu #1
    00: 00: 00.000 : 00: 00: 00.000
    00: 06: 30.015 : 00: 06: 30.015
    00: 11: 41.200 : 00: 11: 41.200
    00: 15: 52.869 : 00: 15: 52.869
    00: 20: 21.762 : 00: 20: 21.762
    00: 27: 00.410 : 00: 27: 00.410
    00: 34: 03.959 : 00: 34: 03.959
    00: 40: 08.239 : 00: 40: 08.239
    00: 43: 21.182 : 00: 43: 21.182
    00: 47: 42.735 : 00: 47: 42.735
    00: 55: 36.291 : 00: 55: 36.291
    00: 59: 38.325 : 00: 59: 38.325
    01: 06: 51.216 : 01: 06: 51.216
    01: 11: 45.551 : 01: 11: 45.551
    01: 17: 40.614 : 01: 17: 40.614
    01: 21: 47.903 : 01: 21: 47.903
    01: 25: 25.537 : 01: 25: 25.537
    01: 27: 57.772 : 01: 27: 57.772
    01: 31: 37.033 : 01: 31: 37.033
    01: 33: 56.881 : 01: 33: 56.881
    01: 38: 30.780 : 01: 38: 30.780
    01: 44: 10.995 : 01: 44: 10.995
    01: 50: 55.357 : 01: 50: 55.357
    01: 53: 32.848 : 01: 53: 32.848
    Menu #2
    ID : 13
    Codec ID : text
    Duration : 2h 0mn
    Language : English
    Encoded date : UTC 2019-04-20 16: 45: 24
    Tagged date : UTC 2019-04-20 16: 45: 24
    Bit rate mode : CBR
    Menu For : 1
    00: 00: 00.000 : 00: 00: 00.000
    00: 06: 30.015 : 00: 06: 30.015
    00: 11: 41.200 : 00: 11: 41.200
    00: 15: 52.869 : 00: 15: 52.869
    00: 20: 21.762 : 00: 20: 21.762
    00: 27: 00.410 : 00: 27: 00.410
    00: 34: 03.959 : 00: 34: 03.959
    00: 40: 08.239 : 00: 40: 08.239
    00: 43: 21.182 : 00: 43: 21.182
    00: 47: 42.735 : 00: 47: 42.735
    00: 55: 36.291 : 00: 55: 36.291
    00: 59: 38.325 : 00: 59: 38.325
    01: 06: 51.216 : 01: 06: 51.216
    01: 11: 45.551 : 01: 11: 45.551
    01: 17: 40.614 : 01: 17: 40.614
    01: 21: 47.903 : 01: 21: 47.903
    01: 25: 25.537 : 01: 25: 25.537
    01: 27: 57.772 : 01: 27: 57.772
    01: 31: 37.033 : 01: 31: 37.033
    01: 33: 56.881 : 01: 33: 56.881
    01: 38: 30.780 : 01: 38: 30.780
    01: 44: 10.995 : 01: 44: 10.995
    01: 50: 55.357 : 01: 50: 55.357
    01: 53: 32.848 : 01: 53: 32.848

    x264 info: frame I: 1910 Avg QP: 14.99 size: 104200
    x264 info: frame P: 66985 Avg QP: 17.80 size: 30727
    x264 info: frame B: 103929 Avg QP: 19.57 size: 8466
    x264 info: consecutive B-frames: 5.5% 32.5% 31.5% 30.5%
    x264 info: mb I I16..4: 6.6% 62.0% 31.4%
    x264 info: mb P I16..4: 1.7% 6.3% 2.9% P16..4: 46.9% 24.7% 10.6% 0.0% 0.0% skip: 7.0%
    x264 info: mb B I16..4: 0.1% 0.7% 0.4% B16..8: 44.4% 10.3% 1.6% direct: 4.0% skip: 38.4% L0: 39.5% L1: 52.3% BI: 8.2%
    x264 info: 8x8 transform intra: 58.5% inter: 45.8%
    x264 info: coded y, uvDC, uvAC intra: 82.3% 79.3% 55.2% inter: 25.9% 22.4% 12.5%
    x264 info: i16 v, h, dc, p: 33% 15% 6% 47%
    x264 info: i8 v, h, dc, ddl, ddr, vr, hd, vl, hu: 8% 8% 5% 12% 16% 15% 15% 12% 12%
    x264 info: i4 v, h, dc, ddl, ddr, vr, hd, vl, hu: 9% 8% 3% 12% 17% 16% 14% 11% 9%
    x264 info: i8c dc, h, v, p: 51% 17% 19% 13%
    x264 info: ref P L0: 72.9% 16.1% 11.0%
    x264 info: ref B L0: 80.6% 19.4%
    x264 info: kb/s: 3481.75
    Скриншоты :


    Все одноименные релизы в Клубе
    Время раздачи: 24/7 (круглосуточно)


    Релиз подготовлен для просмотра наApple TV, iPad, iPhone, iPod Touch.
    Для просмотра данного релиза на компьютере с ОС Windows рекомендуется использоватьVLC media player


    Рождённый стать королём/The Kid Who Would Be King (2019) BDRip [720p] ATV
    Рейтинг →
     (голосов: 1, оценка 5/5, голосовать можно 1 раз )

    Другие торренты по теме:

  • Рождённый стать королем / The Kid Who Would Be King (2019) CamRip [AD]
  • Рождённый стать королём / The Kid Who Would Be King (2019) BDRip [H.264 / 720p]
  • Рождённый стать королём / The Kid Who Would Be King (2019) BDRip [H.264 / 1080p]
  • Рождённый стать королём / The Kid Who Would Be King (2019) WEB-DL [H.264 / 1080p-LQ]
  • Рождённый стать королём / The Kid Who Would Be King (2019) UHD BDRip [H.265 / 2160p-LQ] [4K, HDR, 10-bit]
  • Рождённый стать королём / The Kid Who Would Be King (2019) BDRemux [H.264 / 1080p]
  • Рождённый стать королём / The Kid Who Would Be King (2019) UHD BDRemux [H.265 / 2160p] [4K, HDR, 10-bit]
  • Рождённый стать королём / The Kid Who Would Be King (2019) BDRip [1080p] ATV


    • Комментарии (0):

      Информация

      Информация

        Посетители, находящиеся в группе Гости, не могут оставлять комментарии в данной новости.

        ↓ Меню




        ↓ Опрос

        Вы добавили сайт в закладки?
        Да
        Нет


        Top 10 за месяц (Программы)