.
Авторизация | Регистрация
Хочешь лучшие торренты? Добавь свой email!
Добавить

Торрент скачать бесплатно

  • support: webmaster@btracker.club
» » Человек-паук: Через вселенные / Spider-Man: Into the Spider-Verse (2018) BDRip [1080p] ATV торрент скачать бесплатно


    Человек-паук: Через вселенные / Spider-Man: Into the Spider-Verse (2018) BDRip [1080p] ATV торрент скачать бесплатно

    Опубликовал: fregat | Дата: 14-03-2019, 05:00 | .torrent скачали: 0

    Человек-паук: Через вселенные / Spider-Man: Into the Spider-Verse (2018) BDRip [1080p] ATVПроизводство : США
    Жанр : Мультфильм, фантастика, боевик, приключения, семейный
    Продолжительность : 01: 56: 50
    Перевод : Дублированный(iTunes)
    Субтитры : Русские, Английские, Украинские
    Режиссер : Боб Персичетти, Питер Рэмзи, Родни Ротман
    Актеры : Шамеик Мур, Джейк Джонсон, Хейли Стайнфелд, Махершала Али, Брайан Тайри Генри, Лили Томлин, Луна Лорен Велес, Зои Кравиц, Джон Малэйни, Кимико Гленн
    Мировая премьера : 6 декабря 2018
    Премьера (РФ) : 13 декабря 2018, WDSSPR

    Описание : Мы всё знаем о Питере Паркере. Он спас город, влюбился, а потом спасал город снова и снова… Но все это — в нашем измерении. А что если в результате работы гигантского коллайдера откроется окно из одного измерения в другое? Найдется ли в нем свой Человек-паук? И как он будет выглядеть? Приготовьтесь к тому, что в разных вселенных могут быть разные Люди-пауки и однажды им придется собраться вместе для борьбы с почти непобедимым врагом.
    Качество : BDRip 1080p
    Контейнер : M4V
    Видео : H.264, 1920x800, 2.40: 1, 8 000 Kbps, 23.976 (24000/1001) fps
    Аудио 1 : Русский/Дублированный (iTunes), AAC LC/2.0/160 Kbps/48.0 KHz
    Аудио 2 : Английский/Оригинальная дорожка , AAC LC/2.0/160 Kbps/48.0 KHz
    Аудио 3 : Русский/Дублированный (iTunes), AC-3/5.1/384 Kbps/48.0 KHz
    Аудио 4 : Английский/Оригинальная дорожка , AC-3/5.1/640 Kbps/48.0 KHz
    Код: выделить все

    Sort Name: Spider-Man: Into the Spider-Verse
    XID: Apple:vendor_id:2018-920265
    contentID: 1444695454
    Copyright: 2018 Sony Pictures Animation Inc. All Rights Reserved. MARVEL and all related character names: © ™ 2018 MARVEL.
    Screenwriters: Фил Лорд, Родни Ротман
    Producers: Уилл Аллегра, Ави Арад, Брайан Бендис
    Director: Боб Персичетти, Питер Рэмзи, Родни Ротман
    Cast: Шамеик Мур, Джейк Джонсон, Хейли Стайнфелд, Махершала Али, Брайан Тайри Генри, Лили Томлин, Луна Лорен Велес, Зои Кравиц, Джон Малэйни, Кимико Гленн
    Studio: Columbia Pictures Corporation
    Rating Annotation: Rated PG for frenetic sequences of animated action violence, thematic elements, and mild language.
    Rating: 3
    Long Description: Мы всё знаем о Питере Паркере. Он спас город, влюбился, а потом спасал город снова и снова... Но все это - в нашем измерении. А что если в результате работы гигантского коллайдера откроется окно из одного измерения в другое? Найдется ли в нем свой Человек-паук? И как он будет выглядеть? Приготовьтесь к тому, что в разных вселенных могут быть разные Люди-пауки и однажды им придется собраться вместе для борьбы с почти непобедимым врагом.
    Description: Мы всё знаем о Питере Паркере. Он спас город, влюбился, а потом спасал город снова и снова... Но все это - в нашем измерении. А что если в результате работы гигантского коллайдера откроется окно из одного измерения в другое? Найдется ли в нем свой Человек-паук? И как он будет выглядеть?
    Release Date: 2018-12-06T08:00:00Z
    Genre: Action Adventure
    Artist: Rodney Rothman, Peter Ramsey Bob Persichetti
    Name: Spider-Man: Into the Spider-Verse
    Код: выделить все

    General
    Complete name : /Users/imac/HandBrake/Spider.Man.Into.the.Spider.Verse.1080p.HD.m4v
    Format : MPEG-4
    Codec ID : M4V (M4V /M4A /mp42/isom)
    File size : 7.63 GiB
    Duration : 1h 56mn
    Overall bit rate mode : Variable
    Overall bit rate : 9 348 Kbps
    Movie name : Spider-Man: Into the Spider-Verse
    Performer : Rodney Rothman, Peter Ramsey Bob Persichetti
    Director : Боб Персичетти/Питер Рэмзи/Родни Ротман
    Actor : Шамеик Мур/Джейк Джонсон/Хейли Стайнфелд/Махершала Али/Брайан Тайри Генри/Лили Томлин/Луна Лорен Велес/Зои Кравиц/Джон Малэйни/Кимико Гленн
    Screenplay by : Фил Лорд/Родни Ротман
    Producer : Уилл Аллегра/Ави Арад/Брайан Бендис
    Production studio : Columbia Pictures Corporation
    Genre : Action Adventure
    ContentType : Short Film
    Description : Мы всё знаем о Питере Паркере. Он спас город, влюбился, а потом спасал город снова и снова... Но все это - в нашем измерении. А что если в результате работы гигантского коллайдера откроется окно из одного измерения в другое? Найдется ли в нем свой Человек-паук? И как он будет выглядеть?
    Recorded date : UTC 2018-12-06 08:00:00
    Encoded date : UTC 2019-03-13 09:47:22
    Tagged date : UTC 2019-03-13 10:04:04
    Copyright : 2018 Sony Pictures Animation Inc. All Rights Reserved. MARVEL and all related character names: © ™ 2018 MARVEL.
    Cover : Yes
    Rating : None
    Title/Sort : Spider-Man: Into the Spider-Verse
    LongDescription : Мы всё знаем о Питере Паркере. Он спас город, влюбился, а потом спасал город снова и снова... Но все это - в нашем измерении. А что если в результате работы гигантского коллайдера откроется окно из одного измерения в другое? Найдется ли в нем свой Человек-паук? И как он будет выглядеть? Приготовьтесь к тому, что в разных вселенных могут быть разные Люди-пауки и однажды им придется собраться вместе для борьбы с почти непобедимым врагом.
    AppleStoreCatalogID : 1444695454
    Vendor : Apple:vendor_id:2018-920265
    ContentRating : mpaa|PG|200|Rated PG for frenetic sequences of animated action violence, thematic elements, and mild language.
    Video #1
    ID : 1
    Format : AVC
    Format/Info : Advanced Video Codec
    Format profile : High@L4
    Format settings : CABAC/4 Ref Frames
    Format settings, CABAC : Yes
    Format settings, ReFrames : 4 frames
    Codec ID : avc1
    Codec ID/Info : Advanced Video Coding
    Duration : 1h 56mn
    Bit rate : 8 000 Kbps
    Width : 1 920 pixels
    Height : 800 pixels
    Display aspect ratio : 2.40:1
    Frame rate mode : Variable
    Frame rate : 23.976 (24000/1001) fps
    Minimum frame rate : 23.974 fps
    Maximum frame rate : 23.981 fps
    Color space : YUV
    Chroma subsampling : 4:2:0
    Bit depth : 8 bits
    Scan type : Progressive
    Bits/(Pixel*Frame) : 0.217
    Stream size : 6.53 GiB (86%)
    Title : Main Program
    Writing library : x264 core 157 r2935 545de2f
    Encoding settings : cabac=1/ref=4/deblock=1:-2:-2/analyse=0x3:0x133/me=umh/subme=10/psy=1/psy_rd=1.00:0.15/mixed_ref=1/me_range=32/chroma_me=1/trellis=2/8x8dct=1/cqm=0/deadzone=21, 11/fast_pskip=1/chroma_qp_offset=-3/threads=25/lookahead_threads=6/sliced_threads=0/nr=0/decimate=0/interlaced=0/bluray_compat=0/constrained_intra=0/bframes=16/b_pyramid=2/b_adapt=2/b_bias=0/direct=3/weightb=1/open_gop=0/weightp=2/keyint=240/keyint_min=24/scenecut=40/intra_refresh=0/rc_lookahead=40/rc=2pass/mbtree=1/bitrate=8000/ratetol=1.0/qcomp=0.70/qpmin=0/qpmax=69/qpstep=4/cplxblur=20.0/qblur=0.5/ip_ratio=1.40/aq=1:1.00
    Language : English
    Encoded date : UTC 2019-03-13 09:47:23
    Tagged date : UTC 2019-03-13 09:47:47
    Color range : Limited
    Color primaries : BT.709
    Transfer characteristics : BT.709
    Matrix coefficients : BT.709
    Menus : 9, 10
    Codec configuration box : avcC
    Video #2
    ID : 10
    Format : JPEG
    Codec ID : jpeg
    Duration : 1h 56mn
    Bit rate mode : Variable
    Bit rate : 627 bps
    Width : 640 pixels
    Height : 266 pixels
    Display aspect ratio : 2.40:1
    Frame rate mode : Variable
    Frame rate : 0.002 fps
    Minimum frame rate : 0.001 fps
    Maximum frame rate : 0.012 fps
    Color space : YUV
    Chroma subsampling : 4:2:0
    Bit depth : 8 bits
    Compression mode : Lossy
    Bits/(Pixel*Frame) : 1.842
    Stream size : 612 KiB (0%)
    Title : Chapter Images
    Language : English
    Default : No
    Encoded date : UTC 2019-03-13 09:47:55
    Tagged date : UTC 2019-03-13 09:47:56
    Menu For : 1
    ColorSpace_ICC : RGB
    Audio #1
    ID : 2
    Format : AAC LC
    Format/Info : Advanced Audio Codec Low Complexity
    Codec ID : mp4a-40-2
    Duration : 1h 56mn
    Source duration : 1h 56mn
    Bit rate mode : Variable
    Bit rate : 157 Kbps
    Maximum bit rate : 291 Kbps
    Channel(s) : 2 channels
    Channel layout : L R
    Sampling rate : 48.0 KHz
    Frame rate : 46.875 fps (1024 SPF)
    Compression mode : Lossy
    Stream size : 131 MiB (2%)
    Source stream size : 131 MiB (2%)
    Title : Russian Stereo
    Language : Russian
    Default : Yes
    Alternate group : 1
    Encoded date : UTC 2019-03-13 09:47:22
    Tagged date : UTC 2019-03-13 09:47:49
    Fallback From : 4
    Menus : 9
    Audio #2
    ID : 3
    Format : AAC LC
    Format/Info : Advanced Audio Codec Low Complexity
    Codec ID : mp4a-40-2
    Duration : 1h 56mn
    Source duration : 1h 56mn
    Bit rate mode : Variable
    Bit rate : 156 Kbps
    Maximum bit rate : 278 Kbps
    Channel(s) : 2 channels
    Channel layout : L R
    Sampling rate : 48.0 KHz
    Frame rate : 46.875 fps (1024 SPF)
    Compression mode : Lossy
    Stream size : 130 MiB (2%)
    Source stream size : 130 MiB (2%)
    Title : English Stereo
    Language : English
    Default : No
    Alternate group : 1
    Encoded date : UTC 2019-03-13 09:47:23
    Tagged date : UTC 2019-03-13 09:47:49
    Fallback From : 5
    Audio #3
    ID : 4
    Format : AC-3
    Format/Info : Audio Coding 3
    Commercial name : Dolby Digital
    Codec ID : ac-3
    Duration : 1h 56mn
    Bit rate mode : Constant
    Bit rate : 384 Kbps
    Channel(s) : 6 channels
    Channel layout : L R C LFE Ls Rs
    Sampling rate : 48.0 KHz
    Frame rate : 31.250 fps (1536 SPF)
    Bit depth : 16 bits
    Compression mode : Lossy
    Stream size : 321 MiB (4%)
    Title : Russian DD 5.1
    Language : Russian
    Service kind : Complete Main
    Default : Inherited From: 2
    Alternate group : 1
    Encoded date : UTC 2019-03-13 09:47:23
    Tagged date : UTC 2019-03-13 09:47:42
    Fallback To : 2
    Audio #4
    ID : 5
    Format : AC-3
    Format/Info : Audio Coding 3
    Commercial name : Dolby Digital
    Codec ID : ac-3
    Duration : 1h 56mn
    Bit rate mode : Constant
    Bit rate : 640 Kbps
    Channel(s) : 6 channels
    Channel layout : L R C LFE Ls Rs
    Sampling rate : 48.0 KHz
    Frame rate : 31.250 fps (1536 SPF)
    Bit depth : 16 bits
    Compression mode : Lossy
    Stream size : 535 MiB (7%)
    Title : English DD 5.1
    Language : English
    Service kind : Complete Main
    Default : No
    Alternate group : 1
    Encoded date : UTC 2019-03-13 09:47:23
    Tagged date : UTC 2019-03-13 09:47:42
    Fallback To : 3
    Text #1
    ID : 6
    Format : Timed Text
    Muxing mode : sbtl
    Codec ID : tx3g
    Duration : 1h 56mn
    Bit rate mode : Variable
    Bit rate : 93 bps
    Stream size : 79.2 KiB (0%)
    Title : Russian full
    Language : Russian
    Default : Yes
    Forced : No
    Alternate group : 2
    Encoded date : UTC 2019-03-13 09:47:23
    Tagged date : UTC 2019-03-13 09:47:23
    Text #2
    ID : 7
    Format : Timed Text
    Muxing mode : sbtl
    Codec ID : tx3g
    Duration : 1h 56mn
    Bit rate mode : Variable
    Bit rate : 65 bps
    Stream size : 55.3 KiB (0%)
    Title : English full
    Language : English
    Default : No
    Forced : No
    Alternate group : 2
    Encoded date : UTC 2019-03-13 09:47:23
    Tagged date : UTC 2019-03-13 09:47:23
    Text #3
    ID : 8
    Format : Timed Text
    Muxing mode : sbtl
    Codec ID : tx3g
    Duration : 1h 56mn
    Bit rate mode : Variable
    Bit rate : 91 bps
    Stream size : 77.8 KiB (0%)
    Title : Ukrainian full
    Language : Ukrainian
    Default : No
    Forced : No
    Alternate group : 2
    Encoded date : UTC 2019-03-13 09:47:23
    Tagged date : UTC 2019-03-13 09:47:23
    Menu #1
    00:00:00.000 : Chapter 1
    00:09:03.793 : Chapter 2
    00:14:04.719 : Chapter 3
    00:18:51.714 : Chapter 4
    00:29:39.027 : Chapter 5
    00:34:14.636 : Chapter 6
    00:40:34.432 : Chapter 7
    00:44:22.827 : Chapter 8
    00:48:06.884 : Chapter 9
    00:58:45.856 : Chapter 10
    01:06:04.461 : Chapter 11
    01:09:55.483 : Chapter 12
    01:20:00.004 : Chapter 13
    01:24:54.923 : Chapter 14
    01:33:33.399 : Chapter 15
    01:55:26.920 : Chapter 16
    Menu #2
    ID : 9
    Codec ID : text
    Duration : 1h 56mn
    Language : English
    Encoded date : UTC 2019-03-13 09:47:49
    Tagged date : UTC 2019-03-13 09:47:49
    Menu For : 2, 1
    00:00:00.000 : Chapter 1
    00:09:03.793 : Chapter 2
    00:14:04.719 : Chapter 3
    00:18:51.714 : Chapter 4
    00:29:39.027 : Chapter 5
    00:34:14.636 : Chapter 6
    00:40:34.432 : Chapter 7
    00:44:22.827 : Chapter 8
    00:48:06.884 : Chapter 9
    00:58:45.856 : Chapter 10
    01:06:04.461 : Chapter 11
    01:09:55.483 : Chapter 12
    01:20:00.004 : Chapter 13
    01:24:54.923 : Chapter 14
    01:33:33.399 : Chapter 15
    01:55:26.920 : Chapter 16
    Bit rate mode : VBR
    Код: выделить все

    x264 [info]: frame I:1457 Avg QP:16.72 size:217177
    x264 [info]: frame P:53301 Avg QP:21.52 size: 73526
    x264 [info]: frame B:113314 Avg QP:22.75 size: 24489
    x264 [info]: consecutive B-frames: 7.9% 8.6% 12.7% 51.7% 7.7% 6.2% 2.0% 2.7% 0.2% 0.1% 0.1% 0.1% 0.0% 0.0% 0.0% 0.0% 0.0%
    x264 [info]: mb I I16..4: 6.2% 70.4% 23.4%
    x264 [info]: mb P I16..4: 2.7% 17.7% 4.7% P16..4: 36.0% 14.5% 11.6% 0.5% 0.2% skip:12.1%
    x264 [info]: mb B I16..4: 0.4% 1.9% 0.8% B16..8: 36.8% 8.1% 2.3% direct: 4.5% skip:45.2% L0:45.5% L1:42.4% BI:12.2%
    x264 [info]: 8x8 transform intra:69.2% inter:57.4%
    x264 [info]: direct mvs spatial:95.5% temporal:4.5%
    x264 [info]: coded y, uvDC, uvAC intra: 77.8% 84.3% 69.2% inter: 21.4% 27.0% 16.2%
    x264 [info]: i16 v, h, dc, p: 39% 27% 14% 19%
    x264 [info]: i8 v, h, dc, ddl, ddr, vr, hd, vl, hu: 12% 12% 13% 11% 11% 9% 11% 9% 12%
    x264 [info]: i4 v, h, dc, ddl, ddr, vr, hd, vl, hu: 12% 12% 7% 9% 13% 11% 13% 10% 13%
    x264 [info]: i8c dc, h, v, p: 47% 22% 19% 12%
    x264 [info]: Weighted P-Frames: Y:3.8% UV:2.7%
    x264 [info]: ref P L0: 57.7% 12.6% 20.4% 8.4% 0.9% 0.0%
    x264 [info]: ref B L0: 85.8% 11.6% 2.6%
    x264 [info]: ref B L1: 95.7% 4.3%
    x264 [info]: kb/s:8000.50
    Скриншоты :

    Все одноименные релизы в Клубе


    Релиз подготовлен для просмотра наApple TV, iPad, iPhone, iPod Touch.
    Для просмотра данного релиза на компьютере с ОС Windows рекомендуется использоватьVLC media player


    Человек-паук: Через вселенные/Spider-Man: Into the Spider-Verse (2018) BDRip [1080p] ATV
    Рейтинг →
     (голосов: 1, оценка 4/5, голосовать можно 1 раз )

    Другие торренты по теме:

  • Человек-паук: Через вселенные / Spider-Man: Into the Spider-Verse (2018) CamRip [AD]
  • Человек-паук: Через вселенные / Spider-Man: Into the Spider-Verse (2018) WEBRip
  • Человек-паук: Через вселенные / Spider-Man: Into the Spider-Verse (2018) WEB-DL [H.264 / 1080p-LQ]
  • Человек-паук: Через вселенные / Spider-Man: Into the Spider-Verse (2018) UHDRip [H.265 / 2160p-LQ] [10-bit]
  • Человек-паук: Через вселенные / Spider-Man: Into the Spider-Verse (2018) UHD BDRemux [H.265 / 2160p] [4K, HDR, 10-bit]
  • Человек-паук: Через вселенные / Spider-Man: Into the Spider-Verse (2018) BDRip [H.264 / 1080p]
  • Человек-паук: Через вселенные / Spider-Man: Into the Spider-Verse (2018) BDRip [H.264 / 720p]
  • Человек-паук: Через вселенные / Spider-Man: Into the Spider-Verse (2018) HDRip


    • Комментарии (0):

      Информация

      Информация

        Посетители, находящиеся в группе Гости, не могут оставлять комментарии в данной новости.

        ↓ Меню




        ↓ Опрос

        Вы добавили сайт в закладки?
        Да
        Нет


        Top 10 за месяц (Программы)