.
Авторизация | Регистрация

Торрент скачать бесплатно

  • support: webmaster@btracker.club
» » Тройная граница / Triple Frontier (2019) WEB-DL [1080p] ATV торрент скачать бесплатно


    Тройная граница / Triple Frontier (2019) WEB-DL [1080p] ATV торрент скачать бесплатно

    Дата: 14-03-2019, 05:00 | .torrent скачали: 1

    Тройная граница / Triple Frontier (2019) WEB-DL [1080p] ATVПроизводство: США/Atlas Entertainment, Netflix
    Жанр: Боевик, Триллер, Драма, Криминал, Приключения
    Режиссер: Джей Си Чендор
    Продюсер: Алекс Гартнер, Энди Хорвитц, Чарльз Ровен
    Актеры: Бен Аффлек, Чарли Ханнэм, Адриа Архона, Педро Паскаль, Оскар Айзек, Гаррет Хедлунд, Шейла Ванд, Рейнальдо Гальегос, Кристин Хорн, Шон МакБрайд

    Описание

    Пограничная зона между Парагваем, Аргентиной и Бразилией считается раем для организованной преступности, наркоторговцев и террористов. Долгие годы отряды специального назначения пытались зачистить регион, но безуспешно. Пятеро оперативников устали смотреть, как впустую погибают их коллеги, и решают взять дело в свои руки. Они рассчитывают ограбить местного наркобарона и одним выстрелом убить двух зайцев — лишить крупный картель финансирования и обеспечить себе безбедное существование.

    Рейтинг MPAA: R (лицам до 17 лет обязательно присутствие взрослого)
    Дата мировой премьеры: 6 марта 2019
    Продолжительность: 02: 05: 55
    Качество видео: WEB-DL 1080р
    Перевод: Дублированный (Невафильм )
    Субтитры: Русские, английские, испанские, французские, финские, немецкие, иврит, польские, португальские, румынские, шведские
    Видео : H.264, 1920x1080 (16: 9), ~4420 kbps, 24.000 fps
    Аудио#1 : AAC, 2.0 ch, 229 Kbps - Русский DUB, Невафильм
    Аудио#2 : AAC, 2.0 ch, 229 Kbps - English, Original
    Аудио#3 : AC3, 6.0 ch, 384 Kbps - Русский, DUB, Невафильм

    Общее
    Полное имя : /Users/NNM-CLUB/Movies/Triple.Frontier.2019.WEB-DL.1080p.m4v
    Формат : MPEG-4
    Идентификатор кодека : M4V (M4V /M4A /mp42/isom)
    Размер файла : 4, 61 Гбайт
    Продолжительность : 2 ч. 5 м.
    Режим общего битрейта : Переменный
    Общий поток : 5245 Кбит/сек
    Название фильма : Тройная граница
    Исполнитель : J.C. Chandor
    Режиссёр : J.C. Chandor
    Исполнитель : Ben Affleck/Oscar Isaac/Charlie Hunnam/Pedro Pascal/Garrett Hedlund/Adria Arjona/Sheila Vand/Reynaldo Gallegos/Carlos Linares/Pedro Lopez/Michael Benjamin Hernandez/Jay Catlett/Pedro Haro/Christine Horn/Hakeemshady Mohamed/Shawn McBride/Jay Dubb/Amber Stone
    Сценарист : Mark Boal/J.C. Chandor
    Продюсер : Alex Gartner/Charles Roven/Andy Horwitz/Helen Medrano
    Исполнительный продюсер : Thomas Hayslip, Neal Dodson, Anna Gerb
    Студия-производитель : Netflix, Atlas Entertainment
    Жанр : боевик, приключения, триллер
    Тип содержимого : Short Film
    Дата записи : UTC 2019-03-06 00: 00: 00
    Дата кодирования : UTC 2019-03-13 11: 20: 13
    Дата пометки : UTC 2019-03-13 11: 26: 19
    Обложка : Yes
    LongDescription : Фильм рассказывает о пятерых друзьях, ветеранах военной службы, которые решают провернуть ограбление влиятельного наркобарона из Южной Америки.
    ContentRating : mpaa|Unrated|???|
    Видео
    Идентификатор : 1
    Формат : AVC
    Формат/Информация : Advanced Video Codec
    Профиль формата : Main@L4
    Настройки формата : CABAC/3 Ref Frames
    Параметр CABAC формата : Да
    Параметр ReFrames формата : 3 кадра
    Идентификатор кодека : avc1
    Идентификатор кодека/Информация : Advanced Video Coding
    Продолжительность : 2 ч. 5 м.
    Вид битрейта : Переменный
    Битрейт : 4420 Кбит/сек
    Максимальный битрейт : 6630 Кбит/сек
    Ширина : 1920 пикселей
    Высота : 1080 пикселей
    Соотношение сторон : 16: 9
    Режим частоты кадров : Переменный
    Частота кадров : 24, 000 кадра/сек
    Минимальная частота кадров : 23, 810 кадра/сек
    Максимальная частота кадров : 24, 390 кадра/сек
    Цветовое пространство : YUV
    Субдискретизация насыщенности : 4: 2: 0
    Битовая глубина : 8 бит
    Тип развёртки : Прогрессивная
    Бит/(Пиксели*Кадры) : 0.089
    Размер потока : 3, 86 Гбайт (84%)
    Библиотека кодирования : x264 core 148 r2715 7e75228
    Настройки программы : cabac=1/ref=3/deblock=1: 0: 0/analyse=0x1: 0x111/me=umh/subme=10/psy=1/psy_rd=1.00: 0.00/mixed_ref=1/me_range=24/chroma_me=1/trellis=2/8x8dct=0/cqm=0/deadzone=21, 11/fast_pskip=1/chroma_qp_offset=-2/threads=8/lookahead_threads=1/sliced_threads=0/nr=0/decimate=1/interlaced=0/bluray_compat=0/stitchable=1/constrained_intra=0/bframes=2/b_pyramid=0/b_adapt=2/b_bias=0/direct=3/weightb=1/open_gop=0/weightp=2/keyint=48/keyint_min=25/scenecut=0/intra_refresh=0/rc_lookahead=48/rc=2pass/mbtree=1/bitrate=4420/ratetol=1.0/qcomp=0.50/qpmin=6/qpmax=51/qpstep=4/cplxblur=20.0/qblur=0.5/vbv_maxrate=6630/vbv_bufsize=8840/nal_hrd=vbr/filler=0/ip_ratio=1.40/aq=1: 1.00
    Язык : English
    Дата кодирования : UTC 2019-03-13 11: 20: 13
    Дата пометки : UTC 2019-03-13 11: 26: 18
    Codec configuration box : avcC
    Аудио #1
    Идентификатор : 2
    Формат : AAC LC
    Формат/Информация : Advanced Audio Codec Low Complexity
    Идентификатор кодека : mp4a-40-2
    Продолжительность : 2 ч. 5 м.
    Вид битрейта : Переменный
    Битрейт : 229 Кбит/сек
    Максимальный битрейт : 372 Кбит/сек
    Каналы : 2 канала
    Channel layout : L R
    Частота : 48, 0 КГц
    Частота кадров : 46, 875 кадров/сек (1024 SPF)
    Метод сжатия : С потерями
    Размер потока : 206 Мбайт (4%)
    Язык : Russian
    Default : Да
    Alternate group : 1
    Дата кодирования : UTC 2019-03-13 11: 20: 13
    Дата пометки : UTC 2019-03-13 11: 26: 18
    Fallback From : 4
    tagc : public.main-program-content
    Аудио #2
    Идентификатор : 3
    Формат : AAC LC
    Формат/Информация : Advanced Audio Codec Low Complexity
    Идентификатор кодека : mp4a-40-2
    Продолжительность : 2 ч. 5 м.
    Вид битрейта : Переменный
    Битрейт : 229 Кбит/сек
    Максимальный битрейт : 412 Кбит/сек
    Каналы : 2 канала
    Channel layout : L R
    Частота : 48, 0 КГц
    Частота кадров : 46, 875 кадров/сек (1024 SPF)
    Метод сжатия : С потерями
    Размер потока : 206 Мбайт (4%)
    Язык : English
    Default : Нет
    Alternate group : 1
    Дата кодирования : UTC 2019-03-13 11: 20: 14
    Дата пометки : UTC 2019-03-13 11: 26: 18
    tagc : public.main-program-content
    Аудио #3
    Идентификатор : 4
    Формат : AC-3
    Формат/Информация : Audio Coding 3
    Коммерческое название : Dolby Digital
    Идентификатор кодека : ac-3
    Продолжительность : 2 ч. 5 м.
    Вид битрейта : Постоянный
    Битрейт : 384 Кбит/сек
    Каналы : 6 каналов
    Channel layout : L R C LFE Ls Rs
    Частота : 48, 0 КГц
    Частота кадров : 31, 250 кадров/сек (1536 SPF)
    Битовая глубина : 16 бит
    Метод сжатия : С потерями
    Размер потока : 346 Мбайт (7%)
    Язык : Russian
    Service kind : Complete Main
    Default : Inherited From: 2
    Alternate group : 1
    Дата кодирования : UTC 2019-03-13 11: 20: 14
    Дата пометки : UTC 2019-03-13 11: 26: 18
    Fallback To : 2
    tagc : public.main-program-content
    Текст #1
    Идентификатор : 5
    Формат : Timed Text
    Режим смешивания : sbtl
    Идентификатор кодека : tx3g
    Продолжительность : 2 ч. 5 м.
    Вид битрейта : Переменный
    Битрейт : 8 бит/сек
    Размер потока : 7, 22 Кбайт (0%)
    Язык : Russian
    Default : Да
    Forced : Нет
    Alternate group : 2
    Дата кодирования : UTC 2019-03-13 11: 20: 14
    Дата пометки : UTC 2019-03-13 11: 26: 18
    tagc : public.subtitles.forced-only
    Текст #2
    Идентификатор : 6
    Формат : Timed Text
    Режим смешивания : sbtl
    Идентификатор кодека : tx3g
    Продолжительность : 1 ч. 57 м.
    Вид битрейта : Переменный
    Битрейт : 79 бит/сек
    Размер потока : 68, 3 Кбайт (0%)
    Язык : Russian
    Default : Нет
    Forced : Нет
    Alternate group : 2
    Дата кодирования : UTC 2019-03-13 11: 20: 14
    Дата пометки : UTC 2019-03-13 11: 26: 19
    tagc : public.main-program-content
    Текст #3
    Идентификатор : 7
    Формат : Timed Text
    Режим смешивания : sbtl
    Идентификатор кодека : tx3g
    Продолжительность : 1 ч. 49 м.
    Вид битрейта : Переменный
    Битрейт : 7 бит/сек
    Размер потока : 5, 31 Кбайт (0%)
    Язык : English
    Default : Нет
    Forced : Нет
    Alternate group : 2
    Дата кодирования : UTC 2019-03-13 11: 20: 14
    Дата пометки : UTC 2019-03-13 11: 26: 18
    tagc : public.subtitles.forced-only
    Текст #4
    Идентификатор : 8
    Формат : Timed Text
    Режим смешивания : sbtl
    Идентификатор кодека : tx3g
    Продолжительность : 1 ч. 57 м.
    Вид битрейта : Переменный
    Битрейт : 64 бит/сек
    Размер потока : 54, 7 Кбайт (0%)
    Язык : English
    Default : Нет
    Forced : Нет
    Alternate group : 2
    Дата кодирования : UTC 2019-03-13 11: 20: 14
    Дата пометки : UTC 2019-03-13 11: 26: 19
    tagc : public.main-program-content
    Текст #5
    Идентификатор : 9
    Формат : Timed Text
    Режим смешивания : sbtl
    Идентификатор кодека : tx3g
    Продолжительность : 1 ч. 57 м.
    Вид битрейта : Переменный
    Битрейт : 77 бит/сек
    Размер потока : 66, 2 Кбайт (0%)
    Язык : English
    Default : Нет
    Forced : Нет
    Alternate group : 2
    Дата кодирования : UTC 2019-03-13 11: 20: 14
    Дата пометки : UTC 2019-03-13 11: 26: 19
    tagc : public.accessibility.transcribes-spoken-dialog
    Текст #6
    Идентификатор : 10
    Формат : Timed Text
    Режим смешивания : sbtl
    Идентификатор кодека : tx3g
    Продолжительность : 1 ч. 57 м.
    Вид битрейта : Переменный
    Битрейт : 56 бит/сек
    Размер потока : 48, 3 Кбайт (0%)
    Язык : German
    Default : Нет
    Forced : Нет
    Alternate group : 2
    Дата кодирования : UTC 2019-03-13 11: 20: 14
    Дата пометки : UTC 2019-03-13 11: 26: 19
    tagc : public.main-program-content
    Текст #7
    Идентификатор : 11
    Формат : Timed Text
    Режим смешивания : sbtl
    Идентификатор кодека : tx3g
    Продолжительность : 1 ч. 57 м.
    Вид битрейта : Переменный
    Битрейт : 48 бит/сек
    Размер потока : 41, 5 Кбайт (0%)
    Язык : Spanish
    Default : Нет
    Forced : Нет
    Alternate group : 2
    Дата кодирования : UTC 2019-03-13 11: 20: 14
    Дата пометки : UTC 2019-03-13 11: 26: 19
    tagc : public.main-program-content
    Текст #8
    Идентификатор : 12
    Формат : Timed Text
    Режим смешивания : sbtl
    Идентификатор кодека : tx3g
    Продолжительность : 1 ч. 57 м.
    Вид битрейта : Переменный
    Битрейт : 56 бит/сек
    Размер потока : 48, 4 Кбайт (0%)
    Язык : Spanish
    Default : Нет
    Forced : Нет
    Alternate group : 2
    Дата кодирования : UTC 2019-03-13 11: 20: 14
    Дата пометки : UTC 2019-03-13 11: 26: 19
    tagc : public.auxiliary-content
    Текст #9
    Идентификатор : 13
    Формат : Timed Text
    Режим смешивания : sbtl
    Идентификатор кодека : tx3g
    Продолжительность : 1 ч. 57 м.
    Вид битрейта : Переменный
    Битрейт : 52 бит/сек
    Размер потока : 44, 3 Кбайт (0%)
    Язык : Finnish
    Default : Нет
    Forced : Нет
    Alternate group : 2
    Дата кодирования : UTC 2019-03-13 11: 20: 14
    Дата пометки : UTC 2019-03-13 11: 26: 19
    tagc : public.main-program-content
    Текст #10
    Идентификатор : 14
    Формат : Timed Text
    Режим смешивания : sbtl
    Идентификатор кодека : tx3g
    Продолжительность : 1 ч. 57 м.
    Вид битрейта : Переменный
    Битрейт : 59 бит/сек
    Размер потока : 50, 8 Кбайт (0%)
    Язык : French
    Default : Нет
    Forced : Нет
    Alternate group : 2
    Дата кодирования : UTC 2019-03-13 11: 20: 14
    Дата пометки : UTC 2019-03-13 11: 26: 19
    tagc : public.main-program-content
    Текст #11
    Идентификатор : 15
    Формат : Timed Text
    Режим смешивания : sbtl
    Идентификатор кодека : tx3g
    Продолжительность : 1 ч. 57 м.
    Вид битрейта : Переменный
    Битрейт : 81 бит/сек
    Размер потока : 69, 4 Кбайт (0%)
    Язык : Hebrew
    Default : Нет
    Forced : Нет
    Alternate group : 2
    Дата кодирования : UTC 2019-03-13 11: 20: 14
    Дата пометки : UTC 2019-03-13 11: 26: 19
    tagc : public.main-program-content
    Текст #12
    Идентификатор : 16
    Формат : Timed Text
    Режим смешивания : sbtl
    Идентификатор кодека : tx3g
    Продолжительность : 1 ч. 57 м.
    Вид битрейта : Переменный
    Битрейт : 57 бит/сек
    Размер потока : 48, 8 Кбайт (0%)
    Язык : Italian
    Default : Нет
    Forced : Нет
    Alternate group : 2
    Дата кодирования : UTC 2019-03-13 11: 20: 14
    Дата пометки : UTC 2019-03-13 11: 26: 19
    tagc : public.main-program-content
    Текст #13
    Идентификатор : 17
    Формат : Timed Text
    Режим смешивания : sbtl
    Идентификатор кодека : tx3g
    Продолжительность : 1 ч. 57 м.
    Вид битрейта : Переменный
    Битрейт : 53 бит/сек
    Размер потока : 45, 2 Кбайт (0%)
    Язык : Polish
    Default : Нет
    Forced : Нет
    Alternate group : 2
    Дата кодирования : UTC 2019-03-13 11: 20: 14
    Дата пометки : UTC 2019-03-13 11: 26: 19
    tagc : public.main-program-content
    Текст #14
    Идентификатор : 18
    Формат : Timed Text
    Режим смешивания : sbtl
    Идентификатор кодека : tx3g
    Продолжительность : 1 ч. 57 м.
    Вид битрейта : Переменный
    Битрейт : 56 бит/сек
    Размер потока : 48, 5 Кбайт (0%)
    Язык : Portuguese
    Default : Нет
    Forced : Нет
    Alternate group : 2
    Дата кодирования : UTC 2019-03-13 11: 20: 14
    Дата пометки : UTC 2019-03-13 11: 26: 19
    tagc : public.main-program-content
    Текст #15
    Идентификатор : 19
    Формат : Timed Text
    Режим смешивания : sbtl
    Идентификатор кодека : tx3g
    Продолжительность : 1 ч. 57 м.
    Вид битрейта : Переменный
    Битрейт : 57 бит/сек
    Размер потока : 49, 4 Кбайт (0%)
    Язык : Portuguese
    Default : Нет
    Forced : Нет
    Alternate group : 2
    Дата кодирования : UTC 2019-03-13 11: 20: 14
    Дата пометки : UTC 2019-03-13 11: 26: 19
    tagc : public.auxiliary-content
    Текст #16
    Идентификатор : 20
    Формат : Timed Text
    Режим смешивания : sbtl
    Идентификатор кодека : tx3g
    Продолжительность : 1 ч. 57 м.
    Вид битрейта : Переменный
    Битрейт : 60 бит/сек
    Размер потока : 51, 2 Кбайт (0%)
    Язык : Romanian
    Default : Нет
    Forced : Нет
    Alternate group : 2
    Дата кодирования : UTC 2019-03-13 11: 20: 14
    Дата пометки : UTC 2019-03-13 11: 26: 19
    tagc : public.main-program-content
    Текст #17
    Идентификатор : 21
    Формат : Timed Text
    Режим смешивания : sbtl
    Идентификатор кодека : tx3g
    Продолжительность : 1 ч. 57 м.
    Вид битрейта : Переменный
    Битрейт : 53 бит/сек
    Размер потока : 45, 3 Кбайт (0%)
    Язык : Swedish
    Default : Нет
    Forced : Нет
    Alternate group : 2
    Дата кодирования : UTC 2019-03-13 11: 20: 14
    Дата пометки : UTC 2019-03-13 11: 26: 19
    tagc : public.main-program-content


    Тройная граница/Triple Frontier (2019) WEB-DL [1080p] ATV
    Рейтинг →
     (голосов: 1, оценка 3/5, голосовать можно 1 раз )

    Другие торренты по теме:

  • Тройная граница / Triple Frontier (2019) WEB-DLRip
  • Тройная граница / Triple Frontier (2019) WEB-DL [H.264 / 1080p-LQ]
  • Тройная граница / Triple Frontier (2019) WEBRip [H.264 / 720p]
  • Тройная граница / Triple Frontier (2019) WEB-DLRip [576p] iPad
  • Тройная граница / Triple Frontier (2019) WEB-DLRip [1080p] ATV


    • Комментарии (0):

      Информация

      Информация

        Посетители, находящиеся в группе Гости, не могут оставлять комментарии в данной новости.

        ↓ Меню




        ↓ Опрос

        Вы добавили сайт в закладки?
        Да
        Нет


        Top 10 за месяц (Программы)