.
Авторизация | Регистрация

Торрент скачать бесплатно

  • support: webmaster@btracker.club
» » Грецкий орешек (2018) WEB-DL [1080p] ATV торрент скачать бесплатно


    Грецкий орешек (2018) WEB-DL [1080p] ATV торрент скачать бесплатно

    Дата: 14-01-2019, 05:00 | .torrent скачали: 0

    Грецкий орешек (2018) WEB-DL [1080p] ATVГод выпуска : 2018
    Производство : Россия
    Жанр : Комедия, приключения
    Продолжительность : 01: 29: 33
    Перевод : (Не требуется)
    Субтитры : Нет
    Режиссер : Стас Иванов
    Актеры : Кирилл Каганович, Антон Васильев, Александр Робак, Полина Толстун, Михаил Пшеничный, Максим Лагашкин, Геннадий Пачис, Мария Болонкина, Антонина Комиссарова, Анастасия Стежко
    Мировая премьера :

    Описание : Кажется, что у Артура всё хорошо. Он молод, остроумен, ведет свое шоу на модном радио, живет с красавицей, на которой собирается жениться. Но! Его избранница вынесла ему мозг. И внезапная страсть к поиску себя подталкивает молодого человека сбежать в Грецию! Там он быстро находит друзей. Вместе они вытворяют такое, что даже местные мафиози не могут пройти мимо. Целая вереница событий и случайностей, опасные и неожиданные моменты поворачивают отпуск совсем в другое русло… Яркая, авантюрная комедия, настоящее путешествие в страну Олимпийского огня и богически красивых дочерей главного греческого мафиози!
    Качество : WEB-DL 1080p
    Контейнер : M4V
    Видео : H.264, 1920x1080, 16: 9, 5 000 Kbps, 24.000 fps
    Аудио 1 : Русский/Оригинальная дорожка , AAC LC/2.0/160 Kbps/48.0 KHz
    Аудио 2 : Русский/Оригинальная дорожка , AC-3/5.1/384 Kbps/48.0 KHz
    Код: выделить все

    Sort Name: Грецкий орешек
    XID: Apple:vendor_id:2018-924347
    contentID: 1445437845
    Copyright: © 2018 RFG Distribution
    Screenwriters: Стас Иванов
    Producers: Сергей Борисов, Александр Робак, Максим Лагашкин
    Director: Стас Иванов
    Cast: Кирилл Каганович, Антон Васильев, Александр Робак, Полина Толстун, Михаил Пшеничный, Максим Лагашкин, Геннадий Пачис, Мария Болонкина
    Studio: Синемафор
    Rating: 135
    Long Description: Кажется, что у Артура всё хорошо. Он молод, остроумен, ведет свое шоу на модном радио, живет с красавицей, на которой собирается жениться. Но! Его избранница вынесла ему мозг. И внезапная страсть к поиску себя подталкивает молодого человека сбежать в Грецию! Там он быстро находит друзей. Вместе они вытворяют такое, что даже местные мафиози не могут пройти мимо. Целая вереница событий и случайностей, опасные и неожиданные моменты поворачивают отпуск совсем в другое русло… Яркая, авантюрная комедия, настоящее путешествие в страну Олимпийского огня и богически красивых дочерей главного греческого мафиози!
    Description: Кажется, что у Артура всё хорошо. Он молод, остроумен, ведет свое шоу на модном радио, живет с красавицей, на которой собирается жениться. Но! Его избранница вынесла ему мозг. И внезапная страсть к поиску себя подталкивает молодого человека сбежать в Грецию!
    Release Date: 2018-11-08T08:00:00Z
    Genre: Комедии
    Artist: Стас Иванов
    Name: Грецкий орешек
    Код: выделить все

    General
    Complete name : /Users/imac/HandBrake/Gretskiy.oreshek.WEB-DL.1080p.m4v
    Format : MPEG-4
    Codec ID : M4V (M4V /M4A /mp42/isom)
    File size : 3.37 GiB
    Duration : 1h 29mn
    Overall bit rate mode : Variable
    Overall bit rate : 5 389 Kbps
    Movie name : Грецкий орешек
    Performer : Стас Иванов
    Director : Стас Иванов
    Actor : Кирилл Каганович/Антон Васильев/Александр Робак/Полина Толстун/Михаил Пшеничный/Максим Лагашкин/Геннадий Пачис/Мария Болонкина
    Screenplay by : Стас Иванов
    Producer : Сергей Борисов/Александр Робак/Максим Лагашкин
    Production studio : Синемафор
    Genre : Комедии
    ContentType : Short Film
    Description : Кажется, что у Артура всё хорошо. Он молод, остроумен, ведет свое шоу на модном радио, живет с красавицей, на которой собирается жениться. Но! Его избранница вынесла ему мозг. И внезапная страсть к поиску себя подталкивает молодого человека сбежать в Грецию!
    Recorded date : UTC 2018-11-08 08:00:00
    Encoded date : UTC 2019-01-12 00:13:07
    Tagged date : UTC 2019-01-12 00:13:46
    Copyright : © 2018 RFG Distribution
    Cover : Yes
    Rating : None
    Title/Sort : Грецкий орешек
    LongDescription : Кажется, что у Артура всё хорошо. Он молод, остроумен, ведет свое шоу на модном радио, живет с красавицей, на которой собирается жениться. Но! Его избранница вынесла ему мозг. И внезапная страсть к поиску себя подталкивает молодого человека сбежать в Грецию! Там он быстро находит друзей. Вместе они вытворяют такое, что даже местные мафиози не могут пройти мимо. Целая вереница событий и случайностей, опасные и неожиданные моменты поворачивают отпуск совсем в другое русло… Яркая, авантюрная комедия, настоящее путешествие в страну Олимпийского огня и богически красивых дочерей главного греческого мафиози!
    AppleStoreCatalogID : 1445437845
    Vendor : Apple:vendor_id:2018-924347
    ContentRating : ru-movie|16+|375|
    Video
    ID : 1
    Format : AVC
    Format/Info : Advanced Video Codec
    Format profile :High@L4.1
    Format settings : CABAC/4 Ref Frames
    Format settings, CABAC : Yes
    Format settings, ReFrames : 4 frames
    Codec ID : avc1
    Codec ID/Info : Advanced Video Coding
    Duration : 1h 29mn
    Bit rate : 5 000 Kbps
    Width : 1 920 pixels
    Height : 1 080 pixels
    Display aspect ratio : 16:9
    Frame rate mode : Variable
    Frame rate : 24.000 fps
    Minimum frame rate : 23.810 fps
    Maximum frame rate : 24.390 fps
    Color space : YUV
    Chroma subsampling : 4:2:0
    Bit depth : 8 bits
    Scan type : Progressive
    Bits/(Pixel*Frame) : 0.100
    Stream size : 3.03 GiB (90%)
    Title : Main Program
    Writing library : x264 core 148 r2721 72d53ab
    Encoding settings : cabac=1/ref=4/deblock=1:0:0/analyse=0x3:0x133/me=umh/subme=10/psy=1/psy_rd=1.00:0.00/mixed_ref=1/me_range=24/chroma_me=1/trellis=2/8x8dct=1/cqm=0/deadzone=21, 11/fast_pskip=1/chroma_qp_offset=-2/threads=34/lookahead_threads=5/sliced_threads=0/nr=0/decimate=1/interlaced=0/bluray_compat=0/constrained_intra=0/bframes=8/b_pyramid=2/b_adapt=2/b_bias=0/direct=3/weightb=1/open_gop=0/weightp=2/keyint=96/keyint_min=48/scenecut=40/intra_refresh=0/rc_lookahead=60/rc=2pass/mbtree=1/bitrate=5000/ratetol=1.0/qcomp=0.60/qpmin=0/qpmax=69/qpstep=4/cplxblur=20.0/qblur=0.5/vbv_maxrate=5000/vbv_bufsize=5000/nal_hrd=none/filler=0/ip_ratio=1.40/aq=1:1.00
    Language : Russian
    Encoded date : UTC 2019-01-12 00:13:07
    Tagged date : UTC 2019-01-12 00:13:14
    Codec configuration box : avcC
    Audio #1
    ID : 2
    Format : AAC LC
    Format/Info : Advanced Audio Codec Low Complexity
    Codec ID : mp4a-40-2
    Duration : 1h 29mn
    Source duration : 1h 29mn
    Bit rate mode : Variable
    Bit rate : 157 Kbps
    Maximum bit rate : 229 Kbps
    Channel(s) : 2 channels
    Channel layout : L R
    Sampling rate : 48.0 KHz
    Frame rate : 46.875 fps (1024 SPF)
    Compression mode : Lossy
    Stream size : 101 MiB (3%)
    Source stream size : 101 MiB (3%)
    Title : Russian Stereo
    Language : Russian
    Default : Yes
    Alternate group : 1
    Encoded date : UTC 2019-01-12 00:13:07
    Tagged date : UTC 2019-01-12 00:13:15
    Fallback From : 3
    Audio #2
    ID : 3
    Format : AC-3
    Format/Info : Audio Coding 3
    Commercial name : Dolby Digital
    Codec ID : ac-3
    Duration : 1h 29mn
    Bit rate mode : Constant
    Bit rate : 384 Kbps
    Channel(s) : 6 channels
    Channel layout : L R C LFE Ls Rs
    Sampling rate : 48.0 KHz
    Frame rate : 31.250 fps (1536 SPF)
    Bit depth : 16 bits
    Compression mode : Lossy
    Stream size : 246 MiB (7%)
    Title : Russian DD 5.1
    Language : Russian
    Service kind : Complete Main
    Default : Inherited From: 2
    Alternate group : 1
    Encoded date : UTC 2019-01-12 00:13:07
    Tagged date : UTC 2019-01-12 00:13:14
    Fallback To : 2
    Скриншоты :


    Все одноименные релизы в Клубе


    Релиз подготовлен для просмотра наApple TV, iPad, iPhone, iPod Touch.
    Для просмотра данного релиза на компьютере с ОС Windows рекомендуется использоватьVLC media player


    Грецкий орешек (2018) WEB-DL [1080p] ATV
    Рейтинг →
     (голосов: 1, оценка 4/5, голосовать можно 1 раз )

    Другие торренты по теме:

  • Грецкий орешек (2018) TS [AD]
  • Грецкий орешек (2018) WEB-DLRip
  • Грецкий орешек (2018) WEB-DL [H.264 / 1080p-LQ]
  • Грецкий орешек (2018) WEB-DLRip [576p] iPad


    • Комментарии (0):

      Информация

      Информация

        Посетители, находящиеся в группе Гости, не могут оставлять комментарии в данной новости.

        ↓ Меню




        ↓ Опрос

        Вы добавили сайт в закладки?
        Да
        Нет


        Top 10 за месяц (Программы)