.
Авторизация | Регистрация
Хочешь лучшие торренты? Добавь свой email!
Добавить

Торрент скачать бесплатно

  • support: webmaster@btracker.club
» » Грецкий орешек (2018) WEB-DLRip [576p] iPad торрент скачать бесплатно


    Грецкий орешек (2018) WEB-DLRip [576p] iPad торрент скачать бесплатно

    Опубликовал: fregat | Дата: 14-01-2019, 05:00 | .torrent скачали: 0

    Грецкий орешек (2018) WEB-DLRip [576p] iPadГод выпуска : 2018
    Производство : Россия
    Жанр : Комедия, приключения
    Продолжительность : 01: 29: 33
    Перевод : (Не требуется)
    Субтитры : Нет
    Режиссер : Стас Иванов
    Актеры : Кирилл Каганович, Антон Васильев, Александр Робак, Полина Толстун, Михаил Пшеничный, Максим Лагашкин, Геннадий Пачис, Мария Болонкина, Антонина Комиссарова, Анастасия Стежко
    Мировая премьера :
    imdb/imdb
    Описание : Кажется, что у Артура всё хорошо. Он молод, остроумен, ведет свое шоу на модном радио, живет с красавицей, на которой собирается жениться. Но! Его избранница вынесла ему мозг. И внезапная страсть к поиску себя подталкивает молодого человека сбежать в Грецию! Там он быстро находит друзей. Вместе они вытворяют такое, что даже местные мафиози не могут пройти мимо. Целая вереница событий и случайностей, опасные и неожиданные моменты поворачивают отпуск совсем в другое русло… Яркая, авантюрная комедия, настоящее путешествие в страну Олимпийского огня и богически красивых дочерей главного греческого мафиози!
    Качество : WEB-DLRip 576p
    Контейнер : M4V
    Видео : H.264, 1024x432, 2.40: 1, 2 200 Kbps, 23.976 fps
    Аудио : Русский/Оригинальная дорожка, AAC LC/2.0/128 Kbps/48.0 KHz
    Код: выделить все

    Sort Name: Грецкий орешек
    XID: Apple:vendor_id:2018-924347
    contentID: 1445437845
    Copyright: © 2018 RFG Distribution
    Screenwriters: Стас Иванов
    Producers: Сергей Борисов, Александр Робак, Максим Лагашкин
    Director: Стас Иванов
    Cast: Кирилл Каганович, Антон Васильев, Александр Робак, Полина Толстун, Михаил Пшеничный, Максим Лагашкин, Геннадий Пачис, Мария Болонкина
    Studio: Синемафор
    Rating: 135
    Long Description: Кажется, что у Артура всё хорошо. Он молод, остроумен, ведет свое шоу на модном радио, живет с красавицей, на которой собирается жениться. Но! Его избранница вынесла ему мозг. И внезапная страсть к поиску себя подталкивает молодого человека сбежать в Грецию! Там он быстро находит друзей. Вместе они вытворяют такое, что даже местные мафиози не могут пройти мимо. Целая вереница событий и случайностей, опасные и неожиданные моменты поворачивают отпуск совсем в другое русло… Яркая, авантюрная комедия, настоящее путешествие в страну Олимпийского огня и богически красивых дочерей главного греческого мафиози!
    Description: Кажется, что у Артура всё хорошо. Он молод, остроумен, ведет свое шоу на модном радио, живет с красавицей, на которой собирается жениться. Но! Его избранница вынесла ему мозг. И внезапная страсть к поиску себя подталкивает молодого человека сбежать в Грецию!
    Release Date: 2018-11-08T08:00:00Z
    Genre: Комедии
    Artist: Стас Иванов
    Name: Грецкий орешек
    Код: выделить все

    General
    Complete name : /Users/imac/HandBrake/Gretskiy.oreshek.(SD).(pk).m4v
    Format : MPEG-4
    Codec ID : M4V (M4V /M4A /mp42/isom)
    File size : 1.46 GiB
    Duration : 1h 29mn
    Overall bit rate mode : Variable
    Overall bit rate : 2 331 Kbps
    Movie name : Грецкий орешек
    Performer : Стас Иванов
    Director : Стас Иванов
    Actor : Кирилл Каганович/Антон Васильев/Александр Робак/Полина Толстун/Михаил Пшеничный/Максим Лагашкин/Геннадий Пачис/Мария Болонкина
    Screenplay by : Стас Иванов
    Producer : Сергей Борисов/Александр Робак/Максим Лагашкин
    Production studio : Синемафор
    Genre : Комедии
    ContentType : Short Film
    Description : Кажется, что у Артура всё хорошо. Он молод, остроумен, ведет свое шоу на модном радио, живет с красавицей, на которой собирается жениться. Но! Его избранница вынесла ему мозг. И внезапная страсть к поиску себя подталкивает молодого человека сбежать в Грецию!
    Recorded date : UTC 2018-11-08 08:00:00
    Encoded date : UTC 2019-01-12 20:35:46
    Tagged date : UTC 2019-01-12 20:36:16
    Copyright : © 2018 RFG Distribution
    Cover : Yes
    Rating : None
    Title/Sort : Грецкий орешек
    LongDescription : Кажется, что у Артура всё хорошо. Он молод, остроумен, ведет свое шоу на модном радио, живет с красавицей, на которой собирается жениться. Но! Его избранница вынесла ему мозг. И внезапная страсть к поиску себя подталкивает молодого человека сбежать в Грецию! Там он быстро находит друзей. Вместе они вытворяют такое, что даже местные мафиози не могут пройти мимо. Целая вереница событий и случайностей, опасные и неожиданные моменты поворачивают отпуск совсем в другое русло… Яркая, авантюрная комедия, настоящее путешествие в страну Олимпийского огня и богически красивых дочерей главного греческого мафиози!
    AppleStoreCatalogID : 1445437845
    Vendor : Apple:vendor_id:2018-924347
    ContentRating : ru-movie|16+|375|
    Video
    ID : 1
    Format : AVC
    Format/Info : Advanced Video Codec
    Format profile :High@L3.1
    Format settings : CABAC/9 Ref Frames
    Format settings, CABAC : Yes
    Format settings, ReFrames : 9 frames
    Codec ID : avc1
    Codec ID/Info : Advanced Video Coding
    Duration : 1h 29mn
    Bit rate : 2 200 Kbps
    Width : 1 024 pixels
    Height : 432 pixels
    Display aspect ratio : 2.40:1
    Frame rate mode : Variable
    Frame rate : 23.976 fps
    Minimum frame rate : 23.828 fps
    Maximum frame rate : 23.981 fps
    Color space : YUV
    Chroma subsampling : 4:2:0
    Bit depth : 8 bits
    Scan type : Progressive
    Bits/(Pixel*Frame) : 0.207
    Stream size : 1.38 GiB (94%)
    Title : Main Program
    Writing library : x264 core 157 r2935 545de2f
    Encoding settings : cabac=1/ref=9/deblock=1:0:0/analyse=0x3:0x113/me=umh/subme=9/psy=1/psy_rd=1.00:0.00/mixed_ref=1/me_range=32/chroma_me=1/trellis=1/8x8dct=1/cqm=0/deadzone=21, 11/fast_pskip=1/chroma_qp_offset=-2/threads=13/lookahead_threads=1/sliced_threads=0/nr=0/decimate=1/interlaced=0/bluray_compat=0/constrained_intra=0/bframes=6/b_pyramid=2/b_adapt=2/b_bias=0/direct=1/weightb=1/open_gop=0/weightp=2/keyint=240/keyint_min=24/scenecut=40/intra_refresh=0/rc_lookahead=40/rc=2pass/mbtree=1/bitrate=2200/ratetol=1.0/qcomp=0.60/qpmin=0/qpmax=69/qpstep=4/cplxblur=20.0/qblur=0.5/ip_ratio=1.40/aq=1:1.00
    Language : Russian
    Encoded date : UTC 2019-01-12 20:35:46
    Tagged date : UTC 2019-01-12 20:35:51
    Color range : Limited
    Color primaries : BT.709
    Transfer characteristics : BT.709
    Matrix coefficients : BT.709
    Codec configuration box : avcC
    Audio
    ID : 2
    Format : AAC LC
    Format/Info : Advanced Audio Codec Low Complexity
    Codec ID : mp4a-40-2
    Duration : 1h 29mn
    Source duration : 1h 29mn
    Bit rate mode : Variable
    Bit rate : 125 Kbps
    Maximum bit rate : 198 Kbps
    Channel(s) : 2 channels
    Channel layout : L R
    Sampling rate : 48.0 KHz
    Frame rate : 46.875 fps (1024 SPF)
    Compression mode : Lossy
    Stream size : 80.4 MiB (5%)
    Source stream size : 80.4 MiB (5%)
    Title : Russian Stereo
    Language : Russian
    Default : Yes
    Alternate group : 1
    Encoded date : UTC 2019-01-12 20:35:46
    Tagged date : UTC 2019-01-12 20:35:53
    Код: выделить все

    x264 [info]: frame I:1144 Avg QP:10.86 size: 95047
    x264 [info]: frame P:32479 Avg QP:13.17 size: 25323
    x264 [info]: frame B:95203 Avg QP:15.74 size: 5736
    x264 [info]: consecutive B-frames: 2.1% 2.5% 3.9% 71.2% 11.2% 5.8% 3.3%
    x264 [info]: mb I I16..4: 7.6% 66.5% 25.9%
    x264 [info]: mb P I16..4: 1.3% 7.3% 2.5% P16..4: 32.1% 28.0% 21.6% 0.0% 0.0% skip: 7.2%
    x264 [info]: mb B I16..4: 0.2% 0.7% 0.5% B16..8: 27.8% 11.3% 4.0% direct: 5.4% skip:50.1% L0:42.4% L1:43.6% BI:14.0%
    x264 [info]: 8x8 transform intra:63.2% inter:59.9%
    x264 [info]: coded y, uvDC, uvAC intra: 84.7% 88.4% 78.4% inter: 24.3% 25.3% 7.8%
    x264 [info]: i16 v, h, dc, p: 35% 19% 10% 36%
    x264 [info]: i8 v, h, dc, ddl, ddr, vr, hd, vl, hu: 14% 14% 14% 7% 9% 10% 10% 10% 12%
    x264 [info]: i4 v, h, dc, ddl, ddr, vr, hd, vl, hu: 10% 20% 5% 7% 11% 11% 13% 9% 14%
    x264 [info]: i8c dc, h, v, p: 47% 25% 18% 10%
    x264 [info]: Weighted P-Frames: Y:1.3% UV:0.6%
    x264 [info]: ref P L0: 52.9% 7.1% 16.9% 6.4% 5.2% 3.8% 3.5% 2.1% 2.2% 0.0% 0.0%
    x264 [info]: ref B L0: 71.9% 12.5% 6.0% 3.2% 2.5% 2.1% 1.3% 0.5%
    x264 [info]: ref B L1: 95.0% 5.0%
    x264 [info]: kb/s:2199.51
    Скриншоты :


    Все одноименные релизы в Клубе


    Релиз подготовлен для просмотра наApple TV, iPad, iPhone, iPod Touch.
    Для просмотра данного релиза на компьютере с ОС Windows рекомендуется использоватьVLC media player


    Грецкий орешек (2018) WEB-DLRip [576p] iPad
    Рейтинг →
     (голосов: 1, оценка 5/5, голосовать можно 1 раз )

    Другие торренты по теме:

  • Грецкий орешек (2018) TS [AD]
  • Грецкий орешек (2018) WEB-DLRip
  • Грецкий орешек (2018) WEB-DL [H.264 / 1080p-LQ]
  • Грецкий орешек (2018) WEB-DL [1080p] ATV


    • Комментарии (0):

      Информация

      Информация

        Посетители, находящиеся в группе Гости, не могут оставлять комментарии в данной новости.

        ↓ Меню




        ↓ Опрос

        Вы добавили сайт в закладки?
        Да
        Нет


        Top 10 за месяц (Программы)