.
Авторизация | Регистрация
Хочешь лучшие торренты? Добавь свой email!
Добавить

Торрент скачать бесплатно

  • support: webmaster@btracker.club
» » Вы умрете, или мы вернем вам деньги / Dead in a Week: Or Your Money Back (2018) BDRip [1080p] ATV торрент скачать бесплатно


    Вы умрете, или мы вернем вам деньги / Dead in a Week: Or Your Money Back (2018) BDRip [1080p] ATV торрент скачать бесплатно

    Опубликовал: fregat | Дата: 2-01-2019, 05:00 | .torrent скачали: 0

    Вы умрете, или мы вернем вам деньги / Dead in a Week: Or Your Money Back (2018) BDRip [1080p] ATVПроизводство : Великобритания
    Жанр : Боевик, комедия
    Продолжительность : 01: 30: 14
    Перевод : Дублированный(iTunes)
    Субтитры : Английские
    Режиссер : Том Эдмундс
    Актеры : Кристофер Экклстон, Анайрин Барнард, Том Уилкинсон, Фрейя Мавор, Гетин Энтони, Найджел Линдсэй, Мэрион Бэйли, Натали Баскомб, Марсия Уоррен, Велибор Топич
    Мировая премьера : 27 июня 2018
    Премьера (РФ) : 29 ноября 2018, Русский Репортаж

    Описание : После очередной неудавшейся попытки свести счеты с жизнью незадачливый писатель Уильям обращается к услугам наемного убийцы Лесли — неумолимого ангела смерти из Гильдии Убийц — организации, готовой оказать помощь всякому, кто нуждается в быстром и безболезненном уходе из жизни. У Лесли доброе сердце, но нетвердая рука. Начальство мечтает отправить его на пенсию, а подвернувшийся контракт — единственный шанс отсрочить неизбежное. Однако в дело вмешивается случай. Уильяму вдруг улыбнулась судьба: он влюбляется…
    Качество : BDRip 1080p
    Контейнер : M4V
    Видео : H.264, 1920x1040, 1.85: 1, 8 000 Kbps, 23.976 fps
    Аудио 1 : Русский/Дублированный (iTunes), AAC LC/2.0/160 Kbps/48.0 KHz
    Аудио 2 : Английский/Оригинальная дорожка , AAC LC/2.0/160 Kbps/48.0 KHz
    Аудио 3 : Русский/Дублированный (iTunes), AC-3/5.1/384 Kbps/48.0 KHz
    Аудио 4 : Английский/Оригинальная дорожка , AC-3/5.1/640 Kbps/48.0 KHz
    Код: выделить все

    Sort Name: Dead In a Week (or Your Money Back)
    XID: Apple:vendor_id:2018-829659
    contentID: 1438585674
    Copyright: © Copyright 2017 Guild of Assassins LTD
    Screenwriters: Том Эдмундс
    Producers: Ник Ашдон, Дэниэл-Конрад Купер, Джина Картер
    Director: Том Эдмундс
    Cast: Кристофер Экклстон, Анейрин Барнард, Том Уилкинсон, Фрейя Мавор, Гетин Энтони, Найджел Линдсэй, Мэрион Бэйли, Велибор Топич, Марсия Уоррен, Эмма Кэмпбелл-Джонс
    Studio: levelFILM
    Rating: 14
    Long Description: После очередной неудавшейся попытки свести счеты с жизнью незадачливый писатель Уильям обращается к услугам наемного убийцы Лесли — неумолимого ангела смерти из Гильдии Убийц — организации, готовой оказать помощь всякому, кто нуждается в быстром и безболезненном уходе из жизни. У Лесли доброе сердце, но нетвердая рука. Начальство мечтает отправить его на пенсию, а подвернувшийся контракт — единственный шанс отсрочить неизбежное. Однако в дело вмешивается случай. Уильяму вдруг улыбнулась судьба: он влюбляется…
    Description: После очередной неудавшейся попытки свести счеты с жизнью незадачливый писатель Уильям обращается к услугам наемного убийцы Лесли — неумолимого ангела смерти из Гильдии Убийц — организации, готовой оказать помощь всякому, кто нуждается в быстром и безболезненном уходе из жизни.
    Release Date: 2018-11-30T08:00:00Z
    Genre: Comedy
    Artist: Tom Edmunds
    Name: Dead In a Week (or Your Money Back)
    Код: выделить все

    General
    Complete name : /Users/imac/HandBrake/Dead.in.a.Week.Or.Your.Money.Back.1080p.HD.m4v
    Format : MPEG-4
    Codec ID : M4V (M4V /M4A /mp42/isom)
    File size : 5.89 GiB
    Duration : 1h 30mn
    Overall bit rate mode : Variable
    Overall bit rate : 9 342 Kbps
    Movie name : Dead In a Week (or Your Money Back)
    Performer : Tom Edmunds
    Director : Том Эдмундс
    Actor : Кристофер Экклстон/Анейрин Барнард/Том Уилкинсон/Фрейя Мавор/Гетин Энтони/Найджел Линдсэй/Мэрион Бэйли/Велибор Топич/Марсия Уоррен/Эмма Кэмпбелл-Джонс
    Screenplay by : Том Эдмундс
    Producer : Ник Ашдон/Дэниэл-Конрад Купер/Джина Картер
    Production studio : levelFILM
    Genre : Comedy
    ContentType : Short Film
    Description : После очередной неудавшейся попытки свести счеты с жизнью незадачливый писатель Уильям обращается к услугам наемного убийцы Лесли — неумолимого ангела смерти из Гильдии Убийц — организации, готовой оказать помощь всякому, кто нуждается в быстром и безболезненном уходе из жизни.
    Recorded date : UTC 2018-11-30 08:00:00
    Encoded date : UTC 2019-01-01 11:50:11
    Tagged date : UTC 2019-01-01 11:54:04
    Copyright : © Copyright 2017 Guild of Assassins LTD
    Cover : Yes
    Rating : None
    Title/Sort : Dead In a Week (or Your Money Back)
    LongDescription : После очередной неудавшейся попытки свести счеты с жизнью незадачливый писатель Уильям обращается к услугам наемного убийцы Лесли — неумолимого ангела смерти из Гильдии Убийц — организации, готовой оказать помощь всякому, кто нуждается в быстром и безболезненном уходе из жизни. У Лесли доброе сердце, но нетвердая рука. Начальство мечтает отправить его на пенсию, а подвернувшийся контракт — единственный шанс отсрочить неизбежное. Однако в дело вмешивается случай. Уильяму вдруг улыбнулась судьба: он влюбляется…
    AppleStoreCatalogID : 1438585674
    Vendor : Apple:vendor_id:2018-829659
    ContentRating : us-tv|Unrated|???|
    Video #1
    ID : 1
    Format : AVC
    Format/Info : Advanced Video Codec
    Format profile : High@L4
    Format settings : CABAC/4 Ref Frames
    Format settings, CABAC : Yes
    Format settings, ReFrames : 4 frames
    Codec ID : avc1
    Codec ID/Info : Advanced Video Coding
    Duration : 1h 30mn
    Source duration : 1h 30mn
    Bit rate : 8 000 Kbps
    Width : 1 920 pixels
    Height : 1 040 pixels
    Display aspect ratio : 1.85:1
    Frame rate mode : Variable
    Frame rate : 23.976 fps
    Minimum frame rate : 23.828 fps
    Maximum frame rate : 23.981 fps
    Color space : YUV
    Chroma subsampling : 4:2:0
    Bit depth : 8 bits
    Scan type : Progressive
    Bits/(Pixel*Frame) : 0.167
    Stream size : 5.04 GiB (86%)
    Source stream size : 5.04 GiB (86%)
    Title : Main Program
    Writing library : x264 core 155 r2901 7d0ff22
    Encoding settings : cabac=1/ref=4/deblock=1:-2:-2/analyse=0x3:0x133/me=umh/subme=10/psy=1/psy_rd=1.00:0.15/mixed_ref=1/me_range=32/chroma_me=1/trellis=2/8x8dct=1/cqm=0/deadzone=21, 11/fast_pskip=1/chroma_qp_offset=-3/threads=32/lookahead_threads=8/sliced_threads=0/nr=0/decimate=0/interlaced=0/bluray_compat=0/constrained_intra=0/bframes=16/b_pyramid=2/b_adapt=2/b_bias=0/direct=3/weightb=1/open_gop=0/weightp=2/keyint=240/keyint_min=24/scenecut=40/intra_refresh=0/rc_lookahead=40/rc=2pass/mbtree=1/bitrate=8000/ratetol=1.0/qcomp=0.70/qpmin=0/qpmax=69/qpstep=4/cplxblur=20.0/qblur=0.5/ip_ratio=1.40/aq=1:1.00
    Language : English
    Encoded date : UTC 2019-01-01 11:50:11
    Tagged date : UTC 2019-01-01 11:50:33
    Color range : Limited
    Color primaries : BT.709
    Transfer characteristics : BT.709
    Matrix coefficients : BT.709
    Menus : 7, 8
    Codec configuration box : avcC
    Video #2
    ID : 8
    Format : JPEG
    Codec ID : jpeg
    Duration : 1h 30mn
    Bit rate mode : Variable
    Bit rate : 680 bps
    Width : 640 pixels
    Height : 346 pixels
    Display aspect ratio : 1.85:1
    Frame rate mode : Variable
    Frame rate : 0.002 fps
    Minimum frame rate : 0.002 fps
    Maximum frame rate : 0.003 fps
    Color space : YUV
    Chroma subsampling : 4:2:0
    Bit depth : 8 bits
    Compression mode : Lossy
    Bits/(Pixel*Frame) : 1.535
    Stream size : 498 KiB (0%)
    Title : Chapter Images
    Language : English
    Default : No
    Encoded date : UTC 2019-01-01 11:50:43
    Tagged date : UTC 2019-01-01 11:50:44
    Menu For : 1
    ColorSpace_ICC : RGB
    Audio #1
    ID : 2
    Format : AAC LC
    Format/Info : Advanced Audio Codec Low Complexity
    Codec ID : mp4a-40-2
    Duration : 1h 30mn
    Source duration : 1h 30mn
    Bit rate mode : Variable
    Bit rate : 155 Kbps
    Maximum bit rate : 230 Kbps
    Channel(s) : 2 channels
    Channel layout : L R
    Sampling rate : 48.0 KHz
    Frame rate : 46.875 fps (1024 SPF)
    Compression mode : Lossy
    Stream size : 100 MiB (2%)
    Source stream size : 100 MiB (2%)
    Title : Russian Stereo
    Language : Russian
    Default : Yes
    Alternate group : 1
    Encoded date : UTC 2019-01-01 11:50:11
    Tagged date : UTC 2019-01-01 11:50:37
    Fallback From : 4
    Audio #2
    ID : 3
    Format : AAC LC
    Format/Info : Advanced Audio Codec Low Complexity
    Codec ID : mp4a-40-2
    Duration : 1h 30mn
    Source duration : 1h 30mn
    Bit rate mode : Variable
    Bit rate : 156 Kbps
    Maximum bit rate : 245 Kbps
    Channel(s) : 2 channels
    Channel layout : L R
    Sampling rate : 48.0 KHz
    Frame rate : 46.875 fps (1024 SPF)
    Compression mode : Lossy
    Stream size : 101 MiB (2%)
    Source stream size : 101 MiB (2%)
    Title : English Stereo
    Language : English
    Default : No
    Alternate group : 1
    Encoded date : UTC 2019-01-01 11:50:11
    Tagged date : UTC 2019-01-01 11:50:37
    Fallback From : 5
    Audio #3
    ID : 4
    Format : AC-3
    Format/Info : Audio Coding 3
    Commercial name : Dolby Digital
    Codec ID : ac-3
    Duration : 1h 30mn
    Bit rate mode : Constant
    Bit rate : 384 Kbps
    Channel(s) : 6 channels
    Channel layout : L R C LFE Ls Rs
    Sampling rate : 48.0 KHz
    Frame rate : 31.250 fps (1536 SPF)
    Bit depth : 16 bits
    Compression mode : Lossy
    Stream size : 248 MiB (4%)
    Title : Russian DD 5.1
    Language : Russian
    Service kind : Complete Main
    Default : Inherited From: 2
    Alternate group : 1
    Encoded date : UTC 2019-01-01 11:50:11
    Tagged date : UTC 2019-01-01 11:50:21
    Fallback To : 2
    Audio #4
    ID : 5
    Format : AC-3
    Format/Info : Audio Coding 3
    Commercial name : Dolby Digital
    Codec ID : ac-3
    Duration : 1h 30mn
    Bit rate mode : Constant
    Bit rate : 640 Kbps
    Channel(s) : 6 channels
    Channel layout : L R C LFE Ls Rs
    Sampling rate : 48.0 KHz
    Frame rate : 31.250 fps (1536 SPF)
    Bit depth : 16 bits
    Compression mode : Lossy
    Stream size : 413 MiB (7%)
    Title : English DD 5.1
    Language : English
    Service kind : Complete Main
    Default : No
    Alternate group : 1
    Encoded date : UTC 2019-01-01 11:50:11
    Tagged date : UTC 2019-01-01 11:50:21
    Fallback To : 3
    Text
    ID : 6
    Format : Timed Text
    Muxing mode : sbtl
    Codec ID : tx3g
    Duration : 1h 30mn
    Bit rate mode : Variable
    Bit rate : 71 bps
    Stream size : 46.8 KiB (0%)
    Title : English full
    Language : English
    Default : Yes
    Forced : No
    Alternate group : 2
    Encoded date : UTC 2019-01-01 11:50:11
    Tagged date : UTC 2019-01-01 11:50:11
    Menu #1
    00:00:00.000 : Chapter 1
    00:07:10.598 : Chapter 2
    00:15:31.433 : Chapter 3
    00:22:29.726 : Chapter 4
    00:30:59.320 : Chapter 5
    00:37:58.657 : Chapter 6
    00:45:24.646 : Chapter 7
    00:54:32.235 : Chapter 8
    01:00:05.444 : Chapter 9
    01:09:17.080 : Chapter 10
    01:15:42.341 : Chapter 11
    01:22:34.587 : Chapter 12
    Menu #2
    ID : 7
    Codec ID : text
    Duration : 1h 30mn
    Language : English
    Encoded date : UTC 2019-01-01 11:50:37
    Tagged date : UTC 2019-01-01 11:50:37
    Menu For : 1
    00:00:00.000 : Chapter 1
    00:07:10.598 : Chapter 2
    00:15:31.433 : Chapter 3
    00:22:29.726 : Chapter 4
    00:30:59.320 : Chapter 5
    00:37:58.657 : Chapter 6
    00:45:24.646 : Chapter 7
    00:54:32.235 : Chapter 8
    01:00:05.444 : Chapter 9
    01:09:17.080 : Chapter 10
    01:15:42.341 : Chapter 11
    01:22:34.587 : Chapter 12
    Bit rate mode : VBR
    Код: выделить все

    x264 [info]: frame I:1050 Avg QP:14.25 size:267181
    x264 [info]: frame P:25928 Avg QP:17.62 size: 82420
    x264 [info]: frame B:102828 Avg QP:18.94 size: 29128
    x264 [info]: consecutive B-frames: 2.7% 1.7% 7.7% 2.9% 4.1% 75.0% 2.3% 0.3% 1.0% 0.2% 0.2% 0.4% 0.1% 0.2% 0.2% 0.2% 0.8%
    x264 [info]: mb I I16..4: 27.0% 53.2% 19.9%
    x264 [info]: mb P I16..4: 5.0% 11.9% 1.4% P16..4: 41.4% 16.0% 10.4% 0.3% 0.1% skip:13.5%
    x264 [info]: mb B I16..4: 0.5% 0.9% 0.0% B16..8: 46.5% 9.2% 1.7% direct: 6.8% skip:34.3% L0:50.3% L1:41.9% BI: 7.8%
    x264 [info]: 8x8 transform intra:62.9% inter:54.0%
    x264 [info]: direct mvs spatial:98.5% temporal:1.5%
    x264 [info]: coded y, uvDC, uvAC intra: 73.6% 69.6% 46.2% inter: 23.7% 26.0% 6.1%
    x264 [info]: i16 v, h, dc, p: 44% 12% 22% 22%
    x264 [info]: i8 v, h, dc, ddl, ddr, vr, hd, vl, hu: 12% 8% 20% 9% 11% 11% 10% 10% 10%
    x264 [info]: i4 v, h, dc, ddl, ddr, vr, hd, vl, hu: 15% 10% 14% 8% 11% 12% 10% 9% 10%
    x264 [info]: i8c dc, h, v, p: 48% 21% 22% 9%
    x264 [info]: Weighted P-Frames: Y:2.2% UV:1.3%
    x264 [info]: ref P L0: 54.2% 8.2% 25.1% 12.1% 0.4% 0.0%
    x264 [info]: ref B L0: 82.7% 14.1% 3.2%
    x264 [info]: ref B L1: 92.8% 7.2%
    x264 [info]: kb/s:7998.04
    Скриншоты :


    Все одноименные релизы в Клубе


    Релиз подготовлен для просмотра наApple TV, iPad, iPhone, iPod Touch.
    Для просмотра данного релиза на компьютере с ОС Windows рекомендуется использоватьVLC media player


    Вы умрете, или мы вернем вам деньги/Dead in a Week: Or Your Money Back (2018) BDRip [1080p] ATV
    Рейтинг →
     (голосов: 1, оценка 5/5, голосовать можно 1 раз )

    Другие торренты по теме:

  • Вы умрете, или мы вернем вам деньги / Dead in a Week: Or Your Money Back (2018) WEBRip [MVO] [AD]
  • Вы умрете, или мы вернем вам деньги / Dead in a Week: Or Your Money Back (2018) BDRip [H.264 / 720p]
  • Вы умрете, или мы вернем вам деньги / Dead in a Week: Or Your Money Back (2018) BDRip
  • Вы умрете, или мы вернем вам деньги / Dead in a Week: Or Your Money Back (2018) BDRip [H.264 / 1080p]
  • Вы умрете, или мы вернем вам деньги / Dead in a Week: Or Your Money Back (2018) BDRemux [H.264 / 1080p]
  • Вы умрете, или мы вернем вам деньги / Dead in a Week: Or Your Money Back (2018) BDRip [H.264 / 1080p-LQ]
  • Вы умрете, или мы вернем вам деньги / Dead in a Week: Or Your Money Back (2018) BDRip [720p] ATV


    • Комментарии (0):

      Информация

      Информация

        Посетители, находящиеся в группе Гости, не могут оставлять комментарии в данной новости.

        ↓ Меню




        ↓ Опрос

        Вы добавили сайт в закладки?
        Да
        Нет


        Top 10 за месяц (Программы)