.
Авторизация | Регистрация
Хочешь лучшие торренты? Добавь свой email!
Добавить

Торрент скачать бесплатно

  • support: webmaster@btracker.club
» » Добрый вечер (2018) WEB-DLRip [576p] iPad торрент скачать бесплатно


    Добрый вечер (2018) WEB-DLRip [576p] iPad торрент скачать бесплатно

    Опубликовал: fregat | Дата: 31-12-2018, 05:00 | .torrent скачали: 1

    Добрый вечер (2018) WEB-DLRip [576p] iPadПроизводство : Россия
    Жанр : Комедия, криминал
    Продолжительность : 01: 19: 57
    Перевод : (Не требуется)
    Субтитры : Нет
    Режиссер : Фёдор Константинович
    Актеры : Вильма Кутавичюте, Артём Цуканов, Кристина Казинская, Филипп Савинков
    Премьера (РФ) : 20 декабря 2018

    Описание : В придорожном отеле сталкиваются бандит и писатель, монахиня и проститутка. У каждого есть план на этот вечер. Спор. Ссора. Секс. Убийство. Кто кого?
    Качество : WEB-DLRip 576p
    Контейнер : M4V
    Видео : H.264, 1024x432, 2.40: 1, 2 200 Kbps, 23.976 fps
    Аудио : Русский/Оригинальная дорожка , AAC/2.0/128 Kbps/48.0 KHz
    Код: выделить все

    Sort Name: Добрый вечер
    XID: Apple:vendor_id:2018-977752
    contentID: 1444716542
    Copyright: © 2018 ИП Черняк М.А.
    Screenwriters: Фёдор Константинович
    Producers: Кирилл Алехин, Дмитрий Шаров
    Director: Фёдор Константинович
    Cast: Вильма Кутавичюте, Артём Цуканов, Кристина Казинская, Филипп Савинков
    Studio: Life Is Short, Pin-Up Production
    Rating: 136
    Long Description: В придорожном отеле сталкиваются бандит и писатель, монахиня и проститутка. У каждого есть план на этот вечер. Спор. Ссора. Секс. Убийство. Кто кого?
    Description: В придорожном отеле сталкиваются бандит и писатель, монахиня и проститутка. У каждого есть план на этот вечер. Спор. Ссора. Секс. Убийство. Кто кого?
    Release Date: 2018-11-26T08:00:00Z
    Genre: Русское кино
    Artist: Фёдор Константинович
    Name: Добрый вечер
    Код: выделить все

    General
    Complete name : /Users/imac/HandBrake/Dobryy.vecher.(SD).(pk).m4v
    Format : MPEG-4
    Codec ID : M4V
    File size : 1.30 GiB
    Duration : 1h 19mn
    Overall bit rate mode : Variable
    Overall bit rate : 2 331 Kbps
    Movie name : Добрый вечер
    Performer : Фёдор Константинович
    Director : Фёдор Константинович
    Actor : Вильма Кутавичюте/Артём Цуканов/Кристина Казинская/Филипп Савинков
    Screenplay by : Фёдор Константинович
    Producer : Кирилл Алехин/Дмитрий Шаров
    Production studio : Life Is Short, Pin-Up Production
    Genre : Русское кино
    ContentType : Short Film
    Description : В придорожном отеле сталкиваются бандит и писатель, монахиня и проститутка. У каждого есть план на этот вечер. Спор. Ссора. Секс. Убийство. Кто кого?
    Recorded date : UTC 2018-11-26 08:00:00
    Encoded date : UTC 2018-12-28 10:06:52
    Tagged date : UTC 2018-12-28 10:10:34
    Copyright : © 2018 ИП Черняк М.А.
    Cover : Yes
    Rating : None
    Title/Sort : Добрый вечер
    LongDescription : В придорожном отеле сталкиваются бандит и писатель, монахиня и проститутка. У каждого есть план на этот вечер. Спор. Ссора. Секс. Убийство. Кто кого?
    AppleStoreCatalogID : 1444716542
    Vendor : Apple:vendor_id:2018-977752
    ContentRating : ru-movie|18+|400|
    Video #1
    ID : 1
    Format : AVC
    Format/Info : Advanced Video Codec
    Format profile :High@L3.1
    Format settings, CABAC : Yes
    Format settings, ReFrames : 9 frames
    Codec ID : avc1
    Codec ID/Info : Advanced Video Coding
    Duration : 1h 19mn
    Bit rate : 2 200 Kbps
    Width : 1 024 pixels
    Height : 432 pixels
    Display aspect ratio : 2.40:1
    Frame rate mode : Variable
    Frame rate : 23.976 fps
    Minimum frame rate : 23.828 fps
    Maximum frame rate : 23.981 fps
    Color space : YUV
    Chroma subsampling : 4:2:0
    Bit depth : 8 bits
    Scan type : Progressive
    Bits/(Pixel*Frame) : 0.207
    Stream size : 1.23 GiB (94%)
    Title : Main Program
    Writing library : x264 core 157 r2935 545de2f
    Encoding settings : cabac=1/ref=9/deblock=1:0:0/analyse=0x3:0x113/me=umh/subme=9/psy=1/psy_rd=1.00:0.00/mixed_ref=1/me_range=32/chroma_me=1/trellis=1/8x8dct=1/cqm=0/deadzone=21, 11/fast_pskip=1/chroma_qp_offset=-2/threads=13/lookahead_threads=1/sliced_threads=0/nr=0/decimate=1/interlaced=0/bluray_compat=0/constrained_intra=0/bframes=6/b_pyramid=2/b_adapt=2/b_bias=0/direct=1/weightb=1/open_gop=0/weightp=2/keyint=240/keyint_min=24/scenecut=40/intra_refresh=0/rc_lookahead=40/rc=2pass/mbtree=1/bitrate=2200/ratetol=1.0/qcomp=0.60/qpmin=0/qpmax=69/qpstep=4/cplxblur=20.0/qblur=0.5/ip_ratio=1.40/aq=1:1.00
    Language : Russian
    Encoded date : UTC 2018-12-28 10:06:53
    Tagged date : UTC 2018-12-28 10:06:56
    Color range : Limited
    Color primaries : BT.709
    Transfer characteristics : BT.709
    Matrix coefficients : BT.709
    Video #2
    ID : 4
    Format : JPEG
    Codec ID : jpeg
    Duration : 1h 19mn
    Bit rate mode : Variable
    Bit rate : 413 bps
    Width : 640 pixels
    Height : 270 pixels
    Display aspect ratio : 2.40:1
    Frame rate mode : Variable
    Frame rate : 0.002 fps
    Minimum frame rate : 0.001 fps
    Maximum frame rate : 0.006 fps
    Color space : YUV
    Chroma subsampling : 4:2:0
    Bit depth : 8 bits
    Compression mode : Lossy
    Bits/(Pixel*Frame) : 1.195
    Stream size : 252 KiB (0%)
    Title : Chapter Images
    Language : Russian
    Encoded date : UTC 2018-12-28 10:07:00
    Tagged date : UTC 2018-12-28 10:07:00
    Audio
    ID : 2
    Format : AAC
    Format/Info : Advanced Audio Codec
    Format profile : LC
    Codec ID : 40
    Duration : 1h 19mn
    Source duration : 1h 19mn
    Bit rate mode : Variable
    Bit rate : 126 Kbps
    Maximum bit rate : 187 Kbps
    Channel(s) : 2 channels
    Channel positions : Front: L R
    Sampling rate : 48.0 KHz
    Compression mode : Lossy
    Stream size : 72.0 MiB (5%)
    Source stream size : 72.0 MiB (5%)
    Title : Russian Stereo
    Language : Russian
    Encoded date : UTC 2018-12-28 10:06:53
    Tagged date : UTC 2018-12-28 10:06:58
    Menu #1
    00:00:00.000 : 1
    00:02:40.791 : 2
    00:08:16.957 : 3
    00:15:33.165 : 4
    00:28:02.665 : 5
    00:31:59.373 : 6
    00:39:04.123 : 7
    00:50:41.123 : 8
    00:59:28.164 : 9
    01:11:32.247 : 10
    Menu #2
    ID : 3
    Codec ID : text
    Duration : 1h 19mn
    Language : Russian
    Encoded date : UTC 2018-12-28 10:06:58
    Tagged date : UTC 2018-12-28 10:06:58
    00:00:00.000 : 1
    00:02:40.791 : 2
    00:08:16.957 : 3
    00:15:33.165 : 4
    00:28:02.665 : 5
    00:31:59.373 : 6
    00:39:04.123 : 7
    00:50:41.123 : 8
    00:59:28.164 : 9
    01:11:32.247 : 10
    Bit rate mode : VBR
    Код: выделить все

    x264 [info]: frame I:694 Avg QP:12.18 size: 62112
    x264 [info]: frame P:27929 Avg QP:14.91 size: 22678
    x264 [info]: frame B:86393 Avg QP:16.90 size: 7433
    x264 [info]: consecutive B-frames: 1.6% 3.1% 7.6% 50.0% 15.3% 19.7% 2.7%
    x264 [info]: mb I I16..4: 10.0% 70.4% 19.6%
    x264 [info]: mb P I16..4: 0.8% 7.8% 1.9% P16..4: 32.8% 31.5% 17.8% 0.0% 0.0% skip: 7.4%
    x264 [info]: mb B I16..4: 0.1% 0.9% 0.3% B16..8: 36.9% 15.3% 4.3% direct: 5.8% skip:36.5% L0:43.8% L1:43.1% BI:13.1%
    x264 [info]: 8x8 transform intra:73.5% inter:62.1%
    x264 [info]: coded y, uvDC, uvAC intra: 91.7% 64.5% 47.3% inter: 31.2% 16.8% 2.2%
    x264 [info]: i16 v, h, dc, p: 35% 14% 9% 41%
    x264 [info]: i8 v, h, dc, ddl, ddr, vr, hd, vl, hu: 11% 8% 7% 10% 13% 13% 13% 12% 14%
    x264 [info]: i4 v, h, dc, ddl, ddr, vr, hd, vl, hu: 9% 8% 3% 9% 15% 15% 14% 12% 14%
    x264 [info]: i8c dc, h, v, p: 53% 21% 16% 10%
    x264 [info]: Weighted P-Frames: Y:5.6% UV:2.5%
    x264 [info]: ref P L0: 47.1% 9.0% 16.9% 7.3% 6.1% 4.5% 4.0% 2.4% 2.4% 0.3% 0.0%
    x264 [info]: ref B L0: 74.6% 10.9% 5.6% 3.1% 2.3% 1.9% 1.2% 0.5%
    x264 [info]: ref B L1: 95.6% 4.4%
    x264 [info]: kb/s:2199.09
    Скриншоты :


    Все одноименные релизы в Клубе


    Релиз подготовлен для просмотра наApple TV, iPad, iPhone, iPod Touch.
    Для просмотра данного релиза на компьютере с ОС Windows рекомендуется использоватьVLC media player


    Добрый вечер (2018) WEB-DLRip [576p] iPad
    Рейтинг →
     (голосов: 1, оценка 3/5, голосовать можно 1 раз )

    Другие торренты по теме:

  • Добрый вечер, господин Валленберг / God afton, Herr Wallenberg (1990) DVDRip [H.264]
  • Добрый вечер (2018) WEB-DLRip
  • Добрый вечер (2018) WEB-DL [H.264 / 1080p-LQ]
  • Добрый вечер (2018) WEB-DL [1080p] ATV


    • Комментарии (0):

      Информация

      Информация

        Посетители, находящиеся в группе Гости, не могут оставлять комментарии в данной новости.

        ↓ Меню




        ↓ Опрос

        Вы добавили сайт в закладки?
        Да
        Нет


        Top 10 за месяц (Программы)