.
Авторизация | Регистрация
Хочешь лучшие торренты? Добавь свой email!
Добавить

Торрент скачать бесплатно

  • support: webmaster@btracker.club
» » Смолфут / Smallfoot (2018) BDRip [480p] iPod торрент скачать бесплатно


    Смолфут / Smallfoot (2018) BDRip [480p] iPod торрент скачать бесплатно

    Опубликовал: fregat | Дата: 31-12-2018, 05:00 | .torrent скачали: 0

    Смолфут / Smallfoot (2018) BDRip [480p] iPodПроизводство : США
    Жанр : Мультфильм, мюзикл, фэнтези, комедия, приключения, семейный
    Продолжительность : 01: 36: 17
    Перевод : Дублированный(iTunes)
    Субтитры : Русские форсированные, Украинские форсированные, Русские, Английские
    Режиссер : Кэри Киркпатрик, Джейсон Рейсиг
    Актеры : Ченнинг Татум, Джеймс Корден, Зендея, Коммон, Леброн Джеймс, Дэнни ДеВито, Джина Родригез, Яра Шахиди, Эли Генри, Джимми Татро
    Мировая премьера : 20 сентября 2018

    Описание : Молодой находчивый йети сталкивается с тем, кого, по его глубокому убеждению, не существует — человеком. Новости о смолфуте приносят ему славу и шанс завоевать девушку его мечты. А ещё — вызывают переполох среди простых йети, которые теперь гадают, кто же ещё обитает в большом мире за пределами их маленькой заснеженной деревушки.
    Качество : BDRip 480p
    Контейнер : M4V
    Видео : H.264, 640x356 анаморф 852х356, 2.40: 1, 1300 Kbps, 23.976 (24000/1001) fps
    Аудио 1 : Русский/Дублированный (iTunes), AAC/2.0/128 Kbps/48.0 KHz
    Аудио 2 : Украинский/Дублированный (iTunes), AAC/2.0/128 Kbps/48.0 KHz
    Аудио 3 : Английский/Оригинальная дорожка , AAC/2.0/128 Kbps/48.0 KHz
    Код: выделить все

    Sort Name: Smallfoot
    XID: Apple:vendor_id:2018-1035311
    contentID: 1435410463
    Copyright: © 2018 Warner Bros. Entertainment Inc.
    Screenwriters: Кэри Киркпатрик, Клер Сера, Эял Поделл
    Producers: Гленн Фикарра, Джон Рекуа, Эллисон Эббейт
    Director: Кэри Киркпатрик
    Cast: Ченнинг Татум, Джеймс Корден, Зендая Колеман, Коммон, Леброн Джеймс, Дэнни ДеВито, Джина Родригез, Яра Шахиди, Эли Генри, Джимми Татро
    Studio: Warner Bros.
    Rating: 3
    Long Description: Молодой находчивый йети сталкивается с тем, кого, по его глубокому убеждению, не существует — человеком. Новости о смолфуте приносят ему славу и шанс завоевать девушку его мечты. А ещё — вызывают переполох среди простых йети, которые теперь гадают, кто же ещё обитает в большом мире за пределами их маленькой заснеженной деревушки.
    Description: Молодой находчивый йети сталкивается с тем, кого, по его глубокому убеждению, не существует — человеком. Новости о смолфуте приносят ему славу и шанс завоевать девушку его мечты.
    Release Date: 2018-09-28T07:00:00Z
    Genre: Kids Family
    Artist: Karey Kirkpatrick
    Name: Smallfoot
    Код: выделить все

    General
    Complete name : /Users/imac/HandBrake/Smallfoot.(480p).(pk).m4v
    Format : MPEG-4
    Codec ID : M4V
    File size : 1.13 GiB
    Duration : 1h 36mn
    Overall bit rate mode : Variable
    Overall bit rate : 1 687 Kbps
    Movie name : Smallfoot
    Performer : Karey Kirkpatrick
    Director : Кэри Киркпатрик
    Actor : Ченнинг Татум/Джеймс Корден/Зендая Колеман/Коммон/Леброн Джеймс/Дэнни ДеВито/Джина Родригез/Яра Шахиди/Эли Генри/Джимми Татро
    Screenplay by : Кэри Киркпатрик/Клер Сера/Эял Поделл
    Producer : Гленн Фикарра/Джон Рекуа/Эллисон Эббейт
    Production studio : Warner Bros.
    Genre : Kids Family
    ContentType : Short Film
    Description : Молодой находчивый йети сталкивается с тем, кого, по его глубокому убеждению, не существует — человеком. Новости о смолфуте приносят ему славу и шанс завоевать девушку его мечты.
    Recorded date : UTC 2018-09-28 07:00:00
    Encoded date : UTC 2018-12-28 09:44:43
    Tagged date : UTC 2018-12-28 09:46:05
    Copyright : © 2018 Warner Bros. Entertainment Inc.
    Cover : Yes
    Rating : None
    Title/Sort : Smallfoot
    LongDescription : Молодой находчивый йети сталкивается с тем, кого, по его глубокому убеждению, не существует — человеком. Новости о смолфуте приносят ему славу и шанс завоевать девушку его мечты. А ещё — вызывают переполох среди простых йети, которые теперь гадают, кто же ещё обитает в большом мире за пределами их маленькой заснеженной деревушки.
    AppleStoreCatalogID : 1435410463
    Vendor : Apple:vendor_id:2018-1035311
    ContentRating : mpaa|PG|200|
    Video #1
    ID : 1
    Format : AVC
    Format/Info : Advanced Video Codec
    Format profile : Baseline@L3
    Format settings, CABAC : No
    Format settings, ReFrames : 2 frames
    Codec ID : avc1
    Codec ID/Info : Advanced Video Coding
    Duration : 1h 36mn
    Bit rate : 1 300 Kbps
    Width : 640 pixels
    Height : 356 pixels
    Display aspect ratio : 2.40:1
    Frame rate mode : Variable
    Frame rate : 23.976 fps
    Minimum frame rate : 23.974 fps
    Maximum frame rate : 23.981 fps
    Color space : YUV
    Chroma subsampling : 4:2:0
    Bit depth : 8 bits
    Scan type : Progressive
    Bits/(Pixel*Frame) : 0.238
    Stream size : 895 MiB (77%)
    Title : Main Program
    Writing library : x264 core 157 r2935 545de2f
    Encoding settings : cabac=0/ref=2/deblock=1:0:0/analyse=0x1:0x111/me=umh/subme=6/psy=1/psy_rd=1.00:0.00/mixed_ref=1/me_range=16/chroma_me=1/trellis=0/8x8dct=0/cqm=0/deadzone=21, 11/fast_pskip=1/chroma_qp_offset=-2/threads=11/lookahead_threads=1/sliced_threads=0/nr=0/decimate=1/interlaced=0/bluray_compat=0/constrained_intra=0/bframes=0/weightp=0/keyint=240/keyint_min=24/scenecut=40/intra_refresh=0/rc_lookahead=40/rc=2pass/mbtree=1/bitrate=1300/ratetol=1.0/qcomp=0.60/qpmin=0/qpmax=69/qpstep=4/cplxblur=20.0/qblur=0.5/vbv_maxrate=5000/vbv_bufsize=5000/nal_hrd=none/filler=0/ip_ratio=1.40/aq=1:1.00
    Language : English
    Encoded date : UTC 2018-12-28 09:44:43
    Tagged date : UTC 2018-12-28 09:44:47
    Color range : Limited
    Color primaries : BT.709
    Transfer characteristics : BT.709
    Matrix coefficients : BT.709
    Video #2
    ID : 10
    Format : JPEG
    Codec ID : jpeg
    Duration : 1h 36mn
    Bit rate mode : Variable
    Bit rate : 561 bps
    Width : 640 pixels
    Height : 267 pixels
    Display aspect ratio : 2.40:1
    Frame rate mode : Variable
    Frame rate : 0.002 fps
    Minimum frame rate : 0.001 fps
    Maximum frame rate : 0.003 fps
    Color space : YUV
    Chroma subsampling : 4:2:0
    Bit depth : 8 bits
    Compression mode : Lossy
    Bits/(Pixel*Frame) : 1.642
    Stream size : 411 KiB (0%)
    Title : Chapter Images
    Language : English
    Encoded date : UTC 2018-12-28 09:45:09
    Tagged date : UTC 2018-12-28 09:45:09
    Audio #1
    ID : 2
    Format : AAC
    Format/Info : Advanced Audio Codec
    Format profile : LC
    Codec ID : 40
    Duration : 1h 36mn
    Source duration : 1h 36mn
    Bit rate mode : Variable
    Bit rate : 126 Kbps
    Maximum bit rate : 193 Kbps
    Channel(s) : 2 channels
    Channel positions : Front: L R
    Sampling rate : 48.0 KHz
    Compression mode : Lossy
    Stream size : 86.7 MiB (7%)
    Source stream size : 86.7 MiB (7%)
    Title : Russian Stereo
    Language : Russian
    Encoded date : UTC 2018-12-28 09:44:43
    Tagged date : UTC 2018-12-28 09:45:06
    Audio #2
    ID : 3
    Format : AAC
    Format/Info : Advanced Audio Codec
    Format profile : LC
    Codec ID : 40
    Duration : 1h 36mn
    Source duration : 1h 36mn
    Bit rate mode : Variable
    Bit rate : 126 Kbps
    Maximum bit rate : 194 Kbps
    Channel(s) : 2 channels
    Channel positions : Front: L R
    Sampling rate : 48.0 KHz
    Compression mode : Lossy
    Stream size : 86.6 MiB (7%)
    Source stream size : 86.6 MiB (7%)
    Title : Ukrainian Stereo
    Language : Ukrainian
    Encoded date : UTC 2018-12-28 09:44:43
    Tagged date : UTC 2018-12-28 09:45:06
    Audio #3
    ID : 4
    Format : AAC
    Format/Info : Advanced Audio Codec
    Format profile : LC
    Codec ID : 40
    Duration : 1h 36mn
    Source duration : 1h 36mn
    Bit rate mode : Variable
    Bit rate : 127 Kbps
    Maximum bit rate : 211 Kbps
    Channel(s) : 2 channels
    Channel positions : Front: L R
    Sampling rate : 48.0 KHz
    Compression mode : Lossy
    Stream size : 87.4 MiB (8%)
    Source stream size : 87.4 MiB (8%)
    Title : English Stereo
    Language : English
    Encoded date : UTC 2018-12-28 09:44:43
    Tagged date : UTC 2018-12-28 09:45:06
    Text #1
    ID : 5
    Format : Timed Text
    Muxing mode : sbtl
    Codec ID : tx3g
    Duration : 1h 23mn
    Bit rate mode : Variable
    Bit rate : 1 bps
    Stream size : 695 Bytes (0%)
    Title : Russian forced
    Language : Russian
    Encoded date : UTC 2018-12-28 09:44:43
    Tagged date : UTC 2018-12-28 09:45:03
    Text #2
    ID : 6
    Format : Timed Text
    Muxing mode : sbtl
    Codec ID : tx3g
    Duration : 1h 23mn
    Bit rate mode : Variable
    Bit rate : 1 bps
    Stream size : 745 Bytes (0%)
    Title : Ukrainian forced
    Language : Ukrainian
    Encoded date : UTC 2018-12-28 09:44:43
    Tagged date : UTC 2018-12-28 09:45:03
    Text #3
    ID : 7
    Format : Timed Text
    Muxing mode : sbtl
    Codec ID : tx3g
    Duration : 1h 31mn
    Bit rate mode : Variable
    Bit rate : 127 bps
    Stream size : 85.0 KiB (0%)
    Title : Russian full
    Language : Russian
    Encoded date : UTC 2018-12-28 09:44:43
    Tagged date : UTC 2018-12-28 09:45:05
    Text #4
    ID : 8
    Format : Timed Text
    Muxing mode : sbtl
    Codec ID : tx3g
    Duration : 1h 31mn
    Bit rate mode : Variable
    Bit rate : 91 bps
    Stream size : 60.9 KiB (0%)
    Title : English full
    Language : English
    Encoded date : UTC 2018-12-28 09:44:43
    Tagged date : UTC 2018-12-28 09:45:05
    Menu #1
    00:00:00.000 : Chapter 1
    00:09:56.346 : Chapter 2
    00:21:36.295 : Chapter 3
    00:32:10.720 : Chapter 4
    00:38:33.603 : Chapter 5
    00:49:59.788 : Chapter 6
    00:55:37.251 : Chapter 7
    01:01:53.210 : Chapter 8
    01:12:04.362 : Chapter 9
    01:18:26.160 : Chapter 10
    01:26:16.797 : Chapter 11
    01:31:12.342 : Chapter 12
    Menu #2
    ID : 9
    Codec ID : text
    Duration : 1h 36mn
    Language : English
    Encoded date : UTC 2018-12-28 09:45:06
    Tagged date : UTC 2018-12-28 09:45:06
    00:00:00.000 : Chapter 1
    00:09:56.346 : Chapter 2
    00:21:36.295 : Chapter 3
    00:32:10.720 : Chapter 4
    00:38:33.603 : Chapter 5
    00:49:59.788 : Chapter 6
    00:55:37.251 : Chapter 7
    01:01:53.210 : Chapter 8
    01:12:04.362 : Chapter 9
    01:18:26.160 : Chapter 10
    01:26:16.797 : Chapter 11
    01:31:12.342 : Chapter 12
    Bit rate mode : VBR
    Код: выделить все

    x264 [info]: frame I:3313 Avg QP:17.68 size: 24854
    x264 [info]: frame P:135215 Avg QP:20.11 size: 6334
    x264 [info]: mb I I16..4: 33.8% 0.0% 66.2%
    x264 [info]: mb P I16..4: 1.4% 0.0% 4.3% P16..4: 39.5% 17.9% 7.8% 0.0% 0.0% skip:29.1%
    x264 [info]: coded y, uvDC, uvAC intra: 64.8% 79.9% 55.1% inter: 24.2% 26.4% 8.2%
    x264 [info]: i16 v, h, dc, p: 34% 16% 8% 42%
    x264 [info]: i4 v, h, dc, ddl, ddr, vr, hd, vl, hu: 32% 13% 13% 6% 8% 9% 6% 8% 5%
    x264 [info]: i8c dc, h, v, p: 45% 16% 26% 13%
    x264 [info]: ref P L0: 76.6% 23.4%
    x264 [info]: kb/s:1299.96
    Скриншоты :


    Все одноименные релизы в Клубе


    Релиз подготовлен для просмотра наApple TV, iPad, iPhone, iPod Touch.
    Для просмотра данного релиза на компьютере с ОС Windows рекомендуется использоватьVLC media player


    Смолфут/Smallfoot (2018) BDRip [480p] iPod
    Рейтинг →
     (голосов: 1, оценка 3/5, голосовать можно 1 раз )

    Другие торренты по теме:

  • Смолфут / Smallfoot (2018) HDRip [Line, AD]
  • Смолфут / Smallfoot (2018) BDRip [H.264 / 1080p-LQ] [EN / EN Sub] [PR]
  • Смолфут / Smallfoot (2018) BDRip 3D [H.264 / 1080p] [вертикальная анаморфная стереопара] [handmade 16:9]
  • Смолфут / Smallfoot (2018) BDRip 3D [H.264 / 1080p] [вертикальная анаморфная стереопара]
  • Смолфут / Smallfoot (2018) BDRip
  • Смолфут / Smallfoot (2018) BDRip [H.264 / 1080p]
  • Смолфут / Smallfoot (2018) BDRemux [H.264 / 1080p]
  • Смолфут / Smallfoot (2018) BDRip [576p] iPad


    • Комментарии (0):

      Информация

      Информация

        Посетители, находящиеся в группе Гости, не могут оставлять комментарии в данной новости.

        ↓ Меню




        ↓ Опрос

        Вы добавили сайт в закладки?
        Да
        Нет


        Top 10 за месяц (Программы)