.
Авторизация | Регистрация
Хочешь лучшие торренты? Добавь свой email!
Добавить

Торрент скачать бесплатно

  • support: webmaster@btracker.club
» » Узел смерти / The Clovehitch Killer (2018) WEB-DL [1080p] ATV [MVO] торрент скачать бесплатно


    Узел смерти / The Clovehitch Killer (2018) WEB-DL [1080p] ATV [MVO] торрент скачать бесплатно

    Опубликовал: fregat | Дата: 31-12-2018, 05:00 | .torrent скачали: 0

    Узел смерти / The Clovehitch Killer (2018) WEB-DL [1080p] ATV [MVO]Производство: США/End Cue
    Жанр: Ужасы, Триллер, Драма, Детектив
    Режиссер: Дункан Скайлз
    Продюсер: Andrew Kortschak, Walter Kortschak, Коуди Райдер
    Актеры: Чарли Пламмер, Дилан МакДермотт, Саманта Мэтис, Мэдисен Бити, Бренна Шерман, Лэнс Шантилс-Уэртц, Лиа Хаттон Бисмор, Сара Кливленд, Майк Кортезе

    Описание

    Несколько лет назад небольшой религиозный городок потрясла серия убийств женщин. Маньяк уже 10 лет не давал о себе знать, его так и не поймали, и теперь община каждый год проводит день памяти жертв убийцы. Подросток Тайлер живёт в небогатой, но дружной и счастливой семье, и считает отца идеалом для подражания. Однажды парень находит непристойную вырезку из журнала, а затем и стопку изданий и фотографию одной из жертв маньяка в сарае отца, который тот все время держит под замком. Подружившись с местной девушкой, одержимой поимкой серийного убийцы, Тайлер начинает изучать детали тех давних преступлений, чтобы выяснить — причастен его отец к убийствам или нет.

    Дата мировой премьеры: 22 сентября 2018
    Продолжительность: 01: 49: 14
    Качество видео: WEB-DL 1080р
    Перевод: Профессиональный многоголосый (Jaskier )
    Субтитры: Английские (Full, SDH)
    Видео : H.264, 1920x1080 (16: 9), ~10900 kbps, 23.976 fps
    Аудио#1 : AAC, 2.0 ch, 328 Kbps - Русский MVO, Jaskier
    Аудио#2 : AAC, 2.0 ch, 328 Kbps - English, Original
    Аудио#3 : AC3, 6.0 ch, 448 Kbps - Русский MVO, Jaskier
    Код: выделить все

    Общее
    Полное имя : /Users/NNM-CLUB/The.Clovehitch.Killer.2018.WEB-DL.1080p.m4v
    Формат : MPEG-4
    Идентификатор кодека : M4V (M4V /M4A /mp42/isom)
    Размер файла : 9, 18 Гбайт
    Продолжительность : 1 ч. 49 м.
    Режим общего битрейта : Переменный
    Общий поток : 12, 0 Мбит/сек
    Название фильма : Клоувхич
    Исполнитель : Duncan Skiles
    Композитор : Matt Veligdan
    Режиссёр : Duncan Skiles
    Исполнитель : Dylan McDermott/Charlie Plummer/Samantha Mathis/Madisen Beaty/Brenna Sherman/Lance Chantiles-Wertz/Emma Jones/Jonathan K. Riggs/Katarina Perez/Janet Scott/Mark A. Nash/Stan Simonov/Michael Urriquia/Gabe Litwin/Mike Cortese/Allie Moisan/Brian Ott
    Сценарист : Christopher D. Ford
    Продюсер : Andrew Kortschak/Cody Ryder/Walter Kortschak/Duncan Skiles/Christopher D. Ford
    Исполнительный продюсер : Marcia Kortschak, Munika Lay, Emily Wiedemann, Bob Berney, Jeanne R. Berney, Alexandra Rossi
    Студия-производитель : End Cue
    Жанр : драма, детектив
    Тип содержимого : Short Film
    Дата записи : UTC 2018-11-16 00:00:00
    Дата кодирования : UTC 2018-12-28 06:12:52
    Дата пометки : UTC 2018-12-28 06:27:21
    Обложка : Yes
    LongDescription : Тайлер — хороший парень, бойскаут, воспитанный в небогатой, но счастливой семье в маленьком религиозном городке. Однако обнаружив однажды у своего отца жуткие видеозаписи, спрятанные в сарае, он начинает подозревать, что человек, которому он доверял больше всего, может оказаться печально известным серийным убийцей. Тайлер объединяется с Кэсси, девчонкой-изгоем, болезненно одержимой легендами об этом убийце, чтобы выяснить правду и спасти свою семью.
    ContentRating : mpaa|Unrated|???|
    Видео
    Идентификатор : 1
    Формат : AVC
    Формат/Информация : Advanced Video Codec
    Профиль формата : High@L4
    Настройки формата : CABAC/4 Ref Frames
    Параметр CABAC формата : Да
    Параметр ReFrames формата : 4 кадра
    Идентификатор кодека : avc1
    Идентификатор кодека/Информация : Advanced Video Coding
    Продолжительность : 1 ч. 49 м.
    Битрейт : 10, 9 Мбит/сек
    Ширина : 1920 пикселей
    Высота : 1080 пикселей
    Соотношение сторон : 16:9
    Режим частоты кадров : Переменный
    Частота кадров : 23, 976 (24000/1001) кадра/сек
    Минимальная частота кадров : 23, 810 кадра/сек
    Максимальная частота кадров : 24, 390 кадра/сек
    Цветовое пространство : YUV
    Субдискретизация насыщенности : 4:2:0
    Битовая глубина : 8 бит
    Тип развёртки : Прогрессивная
    Бит/(Пиксели*Кадры) : 0.219
    Размер потока : 8, 33 Гбайт (91%)
    Язык : English
    Дата кодирования : UTC 2018-12-28 06:12:52
    Дата пометки : UTC 2018-12-28 06:27:21
    Цветовой диапазон : Limited
    Основные цвета : BT.709
    Характеристики трансфера : BT.709
    Коэффициенты матрицы : BT.709
    Codec configuration box : avcC
    Аудио #1
    Идентификатор : 2
    Формат : AAC LC
    Формат/Информация : Advanced Audio Codec Low Complexity
    Идентификатор кодека : mp4a-40-2
    Продолжительность : 1 ч. 49 м.
    Вид битрейта : Переменный
    Битрейт : 328 Кбит/сек
    Максимальный битрейт : 500 Кбит/сек
    Каналы : 2 канала
    Channel layout : L R
    Частота : 48, 0 КГц
    Частота кадров : 46, 875 кадров/сек (1024 SPF)
    Метод сжатия : С потерями
    Размер потока : 257 Мбайт (3%)
    Язык : Russian
    Default : Да
    Alternate group : 1
    Дата кодирования : UTC 2018-12-28 06:12:52
    Дата пометки : UTC 2018-12-28 06:27:21
    Fallback From : 4
    tagc : public.main-program-content
    Аудио #2
    Идентификатор : 3
    Формат : AAC LC
    Формат/Информация : Advanced Audio Codec Low Complexity
    Идентификатор кодека : mp4a-40-2
    Продолжительность : 1 ч. 49 м.
    Продолжительность оригинала : 1 ч. 49 м.
    Вид битрейта : Переменный
    Номинальный битрейт : 328 Кбит/сек
    Максимальный битрейт : 501 Кбит/сек
    Каналы : 2 канала
    Channel layout : L R
    Частота : 48, 0 КГц
    Частота кадров : 46, 875 кадров/сек (1024 SPF)
    Метод сжатия : С потерями
    Размер потока оригинала : 257 Мбайт (3%)
    Язык : English
    Default : Нет
    Alternate group : 1
    Дата кодирования : UTC 2018-12-28 06:12:57
    Дата пометки : UTC 2018-12-28 06:27:21
    tagc : public.main-program-content
    Аудио #3
    Идентификатор : 4
    Формат : AC-3
    Формат/Информация : Audio Coding 3
    Коммерческое название : Dolby Digital
    Идентификатор кодека : ac-3
    Продолжительность : 1 ч. 49 м.
    Вид битрейта : Постоянный
    Битрейт : 448 Кбит/сек
    Каналы : 6 каналов
    Channel layout : L R C LFE Ls Rs
    Частота : 48, 0 КГц
    Частота кадров : 31, 250 кадров/сек (1536 SPF)
    Битовая глубина : 16 бит
    Метод сжатия : С потерями
    Размер потока : 351 Мбайт (4%)
    Язык : Russian
    Service kind : Complete Main
    Default : Inherited From: 2
    Alternate group : 1
    Дата кодирования : UTC 2018-12-28 06:12:57
    Дата пометки : UTC 2018-12-28 06:27:21
    Fallback To : 2
    tagc : public.main-program-content
    Текст #1
    Идентификатор : 5
    Формат : Timed Text
    Режим смешивания : sbtl
    Идентификатор кодека : tx3g
    Продолжительность : 1 ч. 45 м.
    Вид битрейта : Переменный
    Битрейт : 48 бит/сек
    Размер потока : 37, 4 Кбайт (0%)
    Язык : English
    Default : Да
    Forced : Нет
    Alternate group : 2
    Дата кодирования : UTC 2018-12-28 06:12:57
    Дата пометки : UTC 2018-12-28 06:27:21
    tagc : public.main-program-content
    Текст #2
    Идентификатор : 6
    Формат : Timed Text
    Режим смешивания : sbtl
    Идентификатор кодека : tx3g
    Продолжительность : 1 ч. 45 м.
    Вид битрейта : Переменный
    Битрейт : 52 бит/сек
    Размер потока : 40, 4 Кбайт (0%)
    Язык : English
    Default : Нет
    Forced : Нет
    Alternate group : 2
    Дата кодирования : UTC 2018-12-28 06:12:57
    Дата пометки : UTC 2018-12-28 06:27:21
    tagc : public.accessibility.transcribes-spoken-dialog



    Узел смерти/The Clovehitch Killer (2018) WEB-DL [1080p] ATV [MVO]
    Рейтинг →
     (голосов: 1, оценка 5/5, голосовать можно 1 раз )

    Другие торренты по теме:

  • Узел смерти / The Clovehitch Killer (2018) WEB-DLRip [MVO] [AD]


    • Комментарии (0):

      Информация

      Информация

        Посетители, находящиеся в группе Гости, не могут оставлять комментарии в данной новости.

        ↓ Меню




        ↓ Опрос

        Вы добавили сайт в закладки?
        Да
        Нет


        Top 10 за месяц (Программы)