.
Авторизация | Регистрация

Торрент скачать бесплатно

  • support: webmaster@btracker.club
» » Очень специальный репортаж / Envoyes tres speciaux (2009) BDRip [1080p] ATV торрент скачать бесплатно


    Очень специальный репортаж / Envoyes tres speciaux (2009) BDRip [1080p] ATV торрент скачать бесплатно

    Дата: 31-12-2018, 05:00 | .torrent скачали: 0

    Очень специальный репортаж / Envoyes tres speciaux (2009) BDRip [1080p] ATVГод выпуска : 2009
    Производство : Франция
    Жанр : Комедия
    Продолжительность : 01: 32: 55
    Перевод : Двухголосый закадровый(Владислав Данилов, Алёна Соколова)
    Субтитры : Нет
    Режиссер : Фредерик Обюртен
    Актеры : Жерар Жюньо, Жерар Ланвен, Омар Си, Валери Каприски, Энн Маривин, Серж Хазанавичус, Лоран Жерра, Эрик Наггар, Фредерик Тирмон, Гийом Дюран
    Мировая премьера : 21 января 2009

    Описание : Вся Франция поднята на уши, и всё потому, что в Ираке похищены два французских журналиста… Однако только эти двое и знают, что данное похищение — не более чем их собственная выдумка.
    Качество : BDRip 1080p
    Контейнер : M4V
    Видео : H.264, 1920x1040, 1.85: 1, 8 000 Kbps, 23.976 fps
    Аудио 1 : Русский/Двухголосый закадровый , AAC LC/2.0/160 Kbps/48.0 KHz
    Аудио 2 : Французский/Оригинальная дорожка , AAC LC/2.0/160 Kbps/48.0 KHz
    Аудио 3 : Русский/Двухголосый закадровый , AC-3/5.1/640 Kbps/48.0 KHz
    Аудио 4 : Французский/Оригинальная дорожка , AC-3/5.1/640 Kbps/48.0 KHz
    Код: выделить все

    Sort Name: Envoyés très spéciaux
    XID: Apple:vendor_id:2018-406385
    contentID: 1106019156
    Copyright: © 2008 Les Films Manuel Munz - EuropaCorp - M6 Films - Malec Production - Mandarin Films
    Screenwriters: Симон Микаэль, Жак Лабиб
    Producers: Мануэль Мунц, Бенедикт Беллок
    Director: Фредерик Обюртен
    Cast: Жерар Жюньо, Жерар Ланвен, Омар Си, Валери Каприски, Энн Маривин, Серж Хазанавичус, Лоран Жерра, Эрик Наггар, Фредерик Тирмон, Гийом Дюран
    Studio: EUROPACORP
    Rating: 60
    Long Description: Вся Франция поднята на уши, и всё потому, что в Ираке похищены два французских журналиста… Однако только эти двое и знают, что данное похищение — не более чем их собственная выдумка.
    Description: Вся Франция поднята на уши, и всё потому, что в Ираке похищены два французских журналиста… Однако только эти двое и знают, что данное похищение — не более чем их собственная выдумка.
    Release Date: 2009-01-21T08:00:00Z
    Genre: Comédie
    Artist: Frédéric Auburtin
    Name: Envoyés très spéciaux
    Код: выделить все

    General
    Complete name : /Users/imac/HandBrake/Envoyes.tres.speciaux.1080p.HD.m4v
    Format : MPEG-4
    Codec ID : M4V (M4V /M4A /mp42/isom)
    File size : 6.22 GiB
    Duration : 1h 32mn
    Overall bit rate mode : Variable
    Overall bit rate : 9 590 Kbps
    Movie name : Envoyés très spéciaux
    Performer : Frédéric Auburtin
    Director : Фредерик Обюртен
    Actor : Жерар Жюньо/Жерар Ланвен/Омар Си/Валери Каприски/Энн Маривин/Серж Хазанавичус/Лоран Жерра/Эрик Наггар/Фредерик Тирмон/Гийом Дюран
    Screenplay by : Симон Микаэль/Жак Лабиб
    Producer : Мануэль Мунц/Бенедикт Беллок
    Production studio : EUROPACORP
    Genre : Comédie
    ContentType : Short Film
    Description : Вся Франция поднята на уши, и всё потому, что в Ираке похищены два французских журналиста… Однако только эти двое и знают, что данное похищение — не более чем их собственная выдумка.
    Recorded date : UTC 2009-01-21 08:00:00
    Encoded date : UTC 2018-12-29 12:54:07
    Tagged date : UTC 2018-12-29 12:55:37
    Copyright : © 2008 Les Films Manuel Munz - EuropaCorp - M6 Films - Malec Production - Mandarin Films
    Cover : Yes
    Rating : None
    Title/Sort : Envoyés très spéciaux
    LongDescription : Вся Франция поднята на уши, и всё потому, что в Ираке похищены два французских журналиста… Однако только эти двое и знают, что данное похищение — не более чем их собственная выдумка.
    AppleStoreCatalogID : 1106019156
    Vendor : Apple:vendor_id:2018-406385
    ContentRating : fr-movie|Tout public|000|
    Video #1
    ID : 1
    Format : AVC
    Format/Info : Advanced Video Codec
    Format profile : High@L4
    Format settings : CABAC/4 Ref Frames
    Format settings, CABAC : Yes
    Format settings, ReFrames : 4 frames
    Codec ID : avc1
    Codec ID/Info : Advanced Video Coding
    Duration : 1h 32mn
    Source duration : 1h 32mn
    Bit rate : 8 000 Kbps
    Width : 1 920 pixels
    Height : 1 040 pixels
    Display aspect ratio : 1.85:1
    Frame rate mode : Variable
    Frame rate : 23.976 fps
    Minimum frame rate : 23.828 fps
    Maximum frame rate : 23.981 fps
    Color space : YUV
    Chroma subsampling : 4:2:0
    Bit depth : 8 bits
    Scan type : Progressive
    Bits/(Pixel*Frame) : 0.167
    Stream size : 5.19 GiB (83%)
    Source stream size : 5.19 GiB (83%)
    Title : Main Program
    Writing library : x264 core 155 r2901 7d0ff22
    Encoding settings : cabac=1/ref=4/deblock=1:-2:-2/analyse=0x3:0x133/me=umh/subme=10/psy=1/psy_rd=1.00:0.15/mixed_ref=1/me_range=32/chroma_me=1/trellis=2/8x8dct=1/cqm=0/deadzone=21, 11/fast_pskip=1/chroma_qp_offset=-3/threads=32/lookahead_threads=8/sliced_threads=0/nr=0/decimate=0/interlaced=0/bluray_compat=0/constrained_intra=0/bframes=16/b_pyramid=2/b_adapt=2/b_bias=0/direct=3/weightb=1/open_gop=0/weightp=2/keyint=240/keyint_min=24/scenecut=40/intra_refresh=0/rc_lookahead=40/rc=2pass/mbtree=1/bitrate=8000/ratetol=1.0/qcomp=0.70/qpmin=0/qpmax=69/qpstep=4/cplxblur=20.0/qblur=0.5/ip_ratio=1.40/aq=1:1.00
    Language : French
    Encoded date : UTC 2018-12-29 12:54:07
    Tagged date : UTC 2018-12-29 12:54:24
    Color range : Limited
    Color primaries : BT.709
    Transfer characteristics : BT.709
    Matrix coefficients : BT.709
    Menus : 6, 7
    Codec configuration box : avcC
    Video #2
    ID : 7
    Format : JPEG
    Codec ID : jpeg
    Duration : 1h 32mn
    Bit rate mode : Variable
    Bit rate : 965 bps
    Width : 640 pixels
    Height : 346 pixels
    Display aspect ratio : 1.85:1
    Frame rate mode : Variable
    Frame rate : 0.002 fps
    Minimum frame rate : 0.001 fps
    Maximum frame rate : 0.002 fps
    Color space : YUV
    Chroma subsampling : 4:2:0
    Bit depth : 8 bits
    Compression mode : Lossy
    Bits/(Pixel*Frame) : 2.179
    Stream size : 530 KiB (0%)
    Title : Chapter Images
    Language : French
    Default : No
    Encoded date : UTC 2018-12-29 12:54:32
    Tagged date : UTC 2018-12-29 12:54:32
    Menu For : 1
    ColorSpace_ICC : RGB
    Audio #1
    ID : 2
    Format : AAC LC
    Format/Info : Advanced Audio Codec Low Complexity
    Codec ID : mp4a-40-2
    Duration : 1h 32mn
    Source duration : 1h 32mn
    Bit rate mode : Variable
    Bit rate : 153 Kbps
    Maximum bit rate : 269 Kbps
    Channel(s) : 2 channels
    Channel layout : L R
    Sampling rate : 48.0 KHz
    Frame rate : 46.875 fps (1024 SPF)
    Compression mode : Lossy
    Stream size : 102 MiB (2%)
    Source stream size : 102 MiB (2%)
    Title : Russian Stereo
    Language : Russian
    Default : Yes
    Alternate group : 1
    Encoded date : UTC 2018-12-29 12:54:07
    Tagged date : UTC 2018-12-29 12:54:27
    Fallback From : 4
    Audio #2
    ID : 3
    Format : AAC LC
    Format/Info : Advanced Audio Codec Low Complexity
    Codec ID : mp4a-40-2
    Duration : 1h 32mn
    Source duration : 1h 32mn
    Bit rate mode : Variable
    Bit rate : 154 Kbps
    Maximum bit rate : 256 Kbps
    Channel(s) : 2 channels
    Channel layout : L R
    Sampling rate : 48.0 KHz
    Frame rate : 46.875 fps (1024 SPF)
    Compression mode : Lossy
    Stream size : 103 MiB (2%)
    Source stream size : 103 MiB (2%)
    Title : French Stereo
    Language : French
    Default : No
    Alternate group : 1
    Encoded date : UTC 2018-12-29 12:54:07
    Tagged date : UTC 2018-12-29 12:54:27
    Fallback From : 5
    Audio #3
    ID : 4
    Format : AC-3
    Format/Info : Audio Coding 3
    Commercial name : Dolby Digital
    Codec ID : ac-3
    Duration : 1h 32mn
    Bit rate mode : Constant
    Bit rate : 640 Kbps
    Channel(s) : 6 channels
    Channel layout : L R C LFE Ls Rs
    Sampling rate : 48.0 KHz
    Frame rate : 31.250 fps (1536 SPF)
    Bit depth : 16 bits
    Compression mode : Lossy
    Stream size : 425 MiB (7%)
    Title : Russian DD 5.1
    Language : Russian
    Service kind : Complete Main
    Default : Inherited From: 2
    Alternate group : 1
    Encoded date : UTC 2018-12-29 12:54:07
    Tagged date : UTC 2018-12-29 12:54:18
    Fallback To : 2
    Audio #4
    ID : 5
    Format : AC-3
    Format/Info : Audio Coding 3
    Commercial name : Dolby Digital
    Codec ID : ac-3
    Duration : 1h 32mn
    Bit rate mode : Constant
    Bit rate : 640 Kbps
    Channel(s) : 6 channels
    Channel layout : L R C LFE Ls Rs
    Sampling rate : 48.0 KHz
    Frame rate : 31.250 fps (1536 SPF)
    Bit depth : 16 bits
    Compression mode : Lossy
    Stream size : 425 MiB (7%)
    Title : French DD 5.1
    Language : French
    Service kind : Complete Main
    Default : No
    Alternate group : 1
    Encoded date : UTC 2018-12-29 12:54:07
    Tagged date : UTC 2018-12-29 12:54:18
    Fallback To : 3
    Menu #1
    00:00:00.000 : Chapter 1
    00:10:47.482 : Chapter 2
    00:21:22.659 : Chapter 3
    00:31:41.862 : Chapter 4
    00:42:42.440 : Chapter 5
    00:52:31.238 : Chapter 6
    01:05:08.873 : Chapter 7
    01:15:55.855 : Chapter 8
    01:26:09.970 : Chapter 9
    Menu #2
    ID : 6
    Codec ID : text
    Duration : 1h 32mn
    Language : French
    Encoded date : UTC 2018-12-29 12:54:27
    Tagged date : UTC 2018-12-29 12:54:27
    Bit rate mode : CBR
    Menu For : 1
    00:00:00.000 : Chapter 1
    00:10:47.482 : Chapter 2
    00:21:22.659 : Chapter 3
    00:31:41.862 : Chapter 4
    00:42:42.440 : Chapter 5
    00:52:31.238 : Chapter 6
    01:05:08.873 : Chapter 7
    01:15:55.855 : Chapter 8
    01:26:09.970 : Chapter 9
    Код: выделить все

    x264 [info]: frame I:896 Avg QP:20.00 size:169686
    x264 [info]: frame P:29952 Avg QP:23.10 size: 70702
    x264 [info]: frame B:102828 Avg QP:23.95 size: 32106
    x264 [info]: consecutive B-frames: 1.9% 3.5% 9.6% 28.5% 18.4% 13.5% 6.4% 17.0% 0.9% 0.0% 0.0% 0.1% 0.0% 0.0% 0.0% 0.0% 0.0%
    x264 [info]: mb I I16..4: 6.9% 84.8% 8.3%
    x264 [info]: mb P I16..4: 1.5% 13.8% 1.0% P16..4: 49.9% 18.0% 8.0% 0.1% 0.0% skip: 7.7%
    x264 [info]: mb B I16..4: 0.1% 1.0% 0.1% B16..8: 50.6% 9.6% 1.7% direct: 8.5% skip:28.5% L0:46.0% L1:46.8% BI: 7.2%
    x264 [info]: 8x8 transform intra:85.1% inter:71.3%
    x264 [info]: direct mvs spatial:99.4% temporal:0.6%
    x264 [info]: coded y, uvDC, uvAC intra: 89.5% 68.8% 18.6% inter: 37.6% 22.2% 1.4%
    x264 [info]: i16 v, h, dc, p: 46% 15% 10% 29%
    x264 [info]: i8 v, h, dc, ddl, ddr, vr, hd, vl, hu: 9% 7% 5% 11% 16% 15% 14% 13% 11%
    x264 [info]: i4 v, h, dc, ddl, ddr, vr, hd, vl, hu: 12% 7% 2% 9% 15% 17% 14% 12% 12%
    x264 [info]: i8c dc, h, v, p: 31% 27% 23% 18%
    x264 [info]: Weighted P-Frames: Y:1.8% UV:0.7%
    x264 [info]: ref P L0: 51.3% 13.5% 24.4% 10.5% 0.3% 0.0%
    x264 [info]: ref B L0: 87.7% 9.9% 2.4%
    x264 [info]: ref B L1: 96.4% 3.6%
    x264 [info]: kb/s:7993.73
    Скриншоты :


    Все одноименные релизы в Клубе


    Релиз подготовлен для просмотра наApple TV, iPad, iPhone, iPod Touch.
    Для просмотра данного релиза на компьютере с ОС Windows рекомендуется использоватьVLC media player


    Очень специальный репортаж/Envoyes tres speciaux (2009) BDRip [1080p] ATV
    Рейтинг →
     (голосов: 1, оценка 3/5, голосовать можно 1 раз )

    Другие торренты по теме:

  • Воскресение. Очень, очень любим (2007) DVD9
  • Очень хорошие девочки / Very Good Girls (2013) BDRip [720p]
  • [Фотография] Братья наши меньшие, красивые и не очень. Фотографии пользователей NoNaMe Club
  • Очень плохая училка / Bad Teacher (2014) WEB-DLRip [Сезон 1, серии 1-7 из 13] [SET Russia] (обновляемая)
  • Очень плохая училка / Bad Teacher (2011) BDRip [720p] ATV скачать через торрент бесплатно
  • Очень плохая училка / Bad Teacher (2011) BDRip [720p]
  • Очень плохая училка / Bad Teacher (2011) BDRip [720p]
  • Очень плохая училка / Bad Teacher (2011) BDRip [1080p] [Unrated]


    • Комментарии (0):

      Информация

      Информация

        Посетители, находящиеся в группе Гости, не могут оставлять комментарии в данной новости.

        ↓ Меню




        ↓ Опрос

        Вы добавили сайт в закладки?
        Да
        Нет


        Top 10 за месяц (Программы)