.
Авторизация | Регистрация

Торрент скачать бесплатно

  • support: webmaster@btracker.club
» » Черное зеркало: Брандашмыг / Black Mirror: Bandersnatch (2018) WEB-DL [1080p] ATV [MVO] торрент скачать бесплатно


    Черное зеркало: Брандашмыг / Black Mirror: Bandersnatch (2018) WEB-DL [1080p] ATV [MVO] торрент скачать бесплатно

    Дата: 31-12-2018, 05:00 | .torrent скачали: 1

    Черное зеркало: Брандашмыг / Black Mirror: Bandersnatch (2018) WEB-DL [1080p] ATV [MVO]Производство: США/House Of Tomorrow, Netflix
    Жанр: Фантастика, Триллер, Драма, Детектив
    Режиссер: Дэвид Слэйд
    Продюсер: Расселл МакЛин, Чарли Брукер, Аннабель Джонс
    Актеры: Финн Уайтхед, Крэйг Паркинсон, Элис Лоу, Азим Чаудхри, Уилл Поултер, Таллула Роуз Хэддон, Катриона Нокс, Пол Брэдли, Джонатан Арис, А.Дж. Хотон

    Описание

    1984 год. Молодой программист Стефан с многолетним чувством вины за смерть матери пытается написать компьютерную игру по фантастическому роману. Вскоре реальность искажается, создавая невообразимую путаницу в и без того нездоровом сознании парня.

    Дата мировой премьеры: 28 декабря 2018
    Продолжительность: 01: 33: 12
    Качество видео: WEB-DL 1080р
    Перевод: Любительский многоголосый (ColdFilm )
    Субтитры: Русские (Full), английские (Full, SDH)
    Видео : H.264, 1920x1080 (16: 9), ~4640 kbps, 25.000 fps
    Аудио#1 : AAC, 2.0 ch, 173 Kbps - Русский MVO, ColdFilm
    Аудио#2 : AAC, 2.0 ch, 194 Kbps - English, Original
    Код: выделить все

    Общее
    Полное имя : /Users/NNM-CLUB/Black.Mirror.2018.WEB-DL.1080p.m4v
    Формат : MPEG-4
    Идентификатор кодека : M4V (M4V /M4A /mp42/isom)
    Размер файла : 3, 24 Гбайт
    Продолжительность : 1 ч. 33 м.
    Режим общего битрейта : Переменный
    Общий поток : 4978 Кбит/сек
    Название фильма : Черное зеркало: Брандашмыг
    Исполнитель : David Slade
    Композитор : Brian Reitzell
    Режиссёр : David Slade
    Исполнитель : Fionn Whitehead/Craig Parkinson/Alice Lowe/Will Poulter/Asim Chaudhry/Tallulah Haddon/Alan Asaad/Catriona Knox/Paul Bradley/Jonathan Aris/A.J. Houghton/Fleur Keith/Laura Evelyn/Suzanne Burden/Jeff Minter
    Сценарист : Charlie Brooker
    Продюсер : Russell McLean
    Исполнительный продюсер : Annabel Jones, Charlie Brooker
    Студия-производитель : Netflix, House of Tomorrow
    Жанр : фантастика, детектив, драма, триллер, телевизионный фильм
    Тип содержимого : Short Film
    Дата записи : UTC 2018-12-28 00:00:00
    Дата кодирования : UTC 2018-12-30 08:25:53
    Дата пометки : UTC 2018-12-30 08:32:04
    Обложка : Yes
    LongDescription : Молодой программист разрабатывает видеоигру по мотивам фантастического романа, однако скоро реальность и виртуальный мир смешаются в его голове…
    ContentRating : mpaa|R|400|
    Видео
    Идентификатор : 1
    Формат : AVC
    Формат/Информация : Advanced Video Codec
    Профиль формата : Main@L4
    Настройки формата : CABAC/3 Ref Frames
    Параметр CABAC формата : Да
    Параметр ReFrames формата : 3 кадра
    Идентификатор кодека : avc1
    Идентификатор кодека/Информация : Advanced Video Coding
    Продолжительность : 1 ч. 33 м.
    Вид битрейта : Переменный
    Битрейт : 4640 Кбит/сек
    Максимальный битрейт : 6960 Кбит/сек
    Ширина : 1920 пикселей
    Высота : 1080 пикселей
    Соотношение сторон : 16:9
    Режим частоты кадров : Переменный
    Частота кадров : 25, 000 кадров/сек
    Минимальная частота кадров : 17, 857 кадров/сек
    Максимальная частота кадров : 25, 000 кадров/сек
    Цветовое пространство : YUV
    Субдискретизация насыщенности : 4:2:0
    Битовая глубина : 8 бит
    Тип развёртки : Прогрессивная
    Бит/(Пиксели*Кадры) : 0.090
    Размер потока : 3, 00 Гбайт (92%)
    Библиотека кодирования : x264 core 148 r2715 7e75228
    Настройки программы : cabac=1/ref=3/deblock=1:0:0/analyse=0x1:0x111/me=umh/subme=10/psy=1/psy_rd=1.00:0.00/mixed_ref=1/me_range=24/chroma_me=1/trellis=2/8x8dct=0/cqm=0/deadzone=21, 11/fast_pskip=1/chroma_qp_offset=-2/threads=8/lookahead_threads=1/sliced_threads=0/nr=0/decimate=1/interlaced=0/bluray_compat=0/stitchable=1/constrained_intra=0/bframes=2/b_pyramid=0/b_adapt=2/b_bias=0/direct=3/weightb=1/open_gop=0/weightp=2/keyint=250/keyint_min=25/scenecut=0/intra_refresh=0/rc_lookahead=50/rc=2pass/mbtree=1/bitrate=4640/ratetol=1.0/qcomp=0.50/qpmin=6/qpmax=51/qpstep=4/cplxblur=20.0/qblur=0.5/vbv_maxrate=6960/vbv_bufsize=9280/nal_hrd=vbr/filler=0/ip_ratio=1.40/aq=1:1.00
    Язык : English
    Дата кодирования : UTC 2018-12-30 08:25:53
    Дата пометки : UTC 2018-12-30 08:32:03
    Codec configuration box : avcC
    Аудио #1
    Идентификатор : 2
    Формат : AAC LC
    Формат/Информация : Advanced Audio Codec Low Complexity
    Идентификатор кодека : mp4a-40-2
    Продолжительность : 1 ч. 33 м.
    Вид битрейта : Переменный
    Битрейт : 173 Кбит/сек
    Максимальный битрейт : 282 Кбит/сек
    Каналы : 2 канала
    Channel layout : L R
    Частота : 48, 0 КГц
    Частота кадров : 46, 875 кадров/сек (1024 SPF)
    Метод сжатия : С потерями
    Размер потока : 115 Мбайт (3%)
    Язык : Russian
    Default : Да
    Alternate group : 1
    Дата кодирования : UTC 2018-12-30 08:25:53
    Дата пометки : UTC 2018-12-30 08:32:03
    tagc : public.main-program-content
    Аудио #2
    Идентификатор : 3
    Формат : AAC LC
    Формат/Информация : Advanced Audio Codec Low Complexity
    Идентификатор кодека : mp4a-40-2
    Продолжительность : 1 ч. 33 м.
    Продолжительность оригинала : 1 ч. 33 м.
    Вид битрейта : Переменный
    Номинальный битрейт : 194 Кбит/сек
    Максимальный битрейт : 318 Кбит/сек
    Каналы : 2 канала
    Channel layout : L R
    Частота : 48, 0 КГц
    Частота кадров : 46, 875 кадров/сек (1024 SPF)
    Метод сжатия : С потерями
    Размер потока оригинала : 129 Мбайт (4%)
    Язык : English
    Default : Нет
    Alternate group : 1
    Дата кодирования : UTC 2018-12-30 08:25:57
    Дата пометки : UTC 2018-12-30 08:32:03
    tagc : public.main-program-content
    Текст #1
    Идентификатор : 4
    Формат : Timed Text
    Режим смешивания : sbtl
    Идентификатор кодека : tx3g
    Продолжительность : 1 ч. 32 м.
    Вид битрейта : Переменный
    Битрейт : 90 бит/сек
    Размер потока : 60, 6 Кбайт (0%)
    Язык : Russian
    Default : Да
    Forced : Нет
    Alternate group : 2
    Дата кодирования : UTC 2018-12-30 08:25:57
    Дата пометки : UTC 2018-12-30 08:32:03
    tagc : public.main-program-content
    Текст #2
    Идентификатор : 5
    Формат : Timed Text
    Режим смешивания : sbtl
    Идентификатор кодека : tx3g
    Продолжительность : 1 ч. 30 м.
    Вид битрейта : Переменный
    Битрейт : 55 бит/сек
    Размер потока : 36, 3 Кбайт (0%)
    Язык : English
    Default : Нет
    Forced : Нет
    Alternate group : 2
    Дата кодирования : UTC 2018-12-30 08:25:57
    Дата пометки : UTC 2018-12-30 08:32:03
    tagc : public.main-program-content
    Текст #3
    Идентификатор : 6
    Формат : Timed Text
    Режим смешивания : sbtl
    Идентификатор кодека : tx3g
    Продолжительность : 1 ч. 32 м.
    Вид битрейта : Переменный
    Битрейт : 60 бит/сек
    Размер потока : 40, 3 Кбайт (0%)
    Язык : English
    Default : Нет
    Forced : Нет
    Alternate group : 2
    Дата кодирования : UTC 2018-12-30 08:25:57
    Дата пометки : UTC 2018-12-30 08:32:03
    tagc : public.accessibility.transcribes-spoken-dialog



    Черное зеркало: Брандашмыг/Black Mirror: Bandersnatch (2018) WEB-DL [1080p] ATV [MVO]
    Рейтинг →
     (голосов: 1, оценка 3/5, голосовать можно 1 раз )

    Другие торренты по теме:

  • Черное зеркало / Black Mirror (2014) HDTVRip (сезон 3, серии 1 из ) BaibaKo (обновляемая)
  • Черное зеркало / Black Mirror (2014) HDTVRip [H.264 / 720p-LQ] (Сезон 3, эпизод 1 из ) (Кубик в Кубе) (обновляемая)
  • Черное зеркало с Евгением Киселевым (12.02.2016) SATRip [UKR / RUS]
  • Черное зеркало / Black Mirror (2016) WEBRip [H.264 / 720p-LQ] (сезон 3, серии 1 из 6) NewStudio (обновляемая)
  • Черное зеркало / Black Mirror (2014, 2016) HDTVRip / WEBRip (сезон 3, серии 0-6 из 6) BaibaKo
  • Black Mirror 2 / Черное зеркало 2 (2010) [Ru] (1.01) License GOG
  • Черное зеркало / Black Mirror (2011) WEB-DLRip 1080p [Сезон 01] (BaibaKo)
  • Black Mirror 3: Final Fear / Черное зеркало 3 (2011) [Ru / En] (1.01) License GOG


    • Комментарии (0):

      Информация

      Информация

        Посетители, находящиеся в группе Гости, не могут оставлять комментарии в данной новости.

        ↓ Меню




        ↓ Опрос

        Вы добавили сайт в закладки?
        Да
        Нет


        Top 10 за месяц (Программы)