.
Авторизация | Регистрация

Торрент скачать бесплатно

  • support: webmaster@btracker.club
» » Ничего хорошего в отеле «Эль рояль» / Bad Times at the El Royale (2018) BDRip [1080p] ATV торрент скачать бесплатно


    Ничего хорошего в отеле «Эль рояль» / Bad Times at the El Royale (2018) BDRip [1080p] ATV торрент скачать бесплатно

    Дата: 31-12-2018, 05:00 | .torrent скачали: 0

    Ничего хорошего в отеле «Эль рояль» / Bad Times at the El Royale (2018) BDRip [1080p] ATVГод выпуска : 2018
    Производство : США
    Жанр : Триллер, драма, криминал, детектив
    Продолжительность : 02: 21: 37
    Перевод : Дублированный
    Субтитры : Английские
    Режиссер : Дрю Годдард
    Актеры : Джефф Бриджес, Синтиа Эриво, Дакота Джонсон, Джон Хэмм, Крис Хемсворт, Кэйли Спэни, Льюис Пуллман, Ник Офферман, Ксавье Долан, Шей Уигэм
    Мировая премьера : 27 сентября 2018

    Описание : 1969 год. Группа разношерстных личностей останавливается на ночь в когда-то популярном отеле Эль Рояль, расположенном на границе штатов Невада и Калифорния. В здании отеля собрались неприветливый священник, певица Дарлин, энергичный продавец пылесосов и подозрительная девушка с Юга. Вместе с ними ночь в отеле проводит молодой консьерж. Каждому из них есть что скрывать, и у каждого из них будет шанс искупить прошлые грехи. Но ситуация только осложняется, когда в Эль Рояль появляется зловещий, но обаятельный лидер культа, желающий получить свое.
    Качество : BDRip 1080p
    Контейнер : M4V
    Видео : H.264, 1920x800, 2.40: 1, 8 000 Kbps, 23.976 (24000/1001) fps
    Аудио 1 : Русский/Дублированный , AAC LC/2.0/160 Kbps/48.0 KHz
    Аудио 2 : Английский/Оригинальная дорожка , AAC LC/2.0/160 Kbps/48.0 KHz
    Аудио 3 : Русский/Дублированный , AC-3/5.1/448 Kbps/48.0 KHz
    Аудио 4 : Английский/Оригинальная дорожка , AC-3/5.1/640 Kbps/48.0 KHz
    Код: выделить все

    Sort Name: Bad Times At the El Royale
    XID: Apple:vendor_id:2018-1047143
    contentID: 1438058811
    Copyright: © 2018 Twentieth Century Fox Film Corporation. All rights reserved.
    Screenwriters: Дрю Годдард
    Producers: Дрю Годдард, Джереми Латчем, Стив Асбелл
    Director: Дрю Годдард
    Cast: Крис Хемсворт, Дакота Джонсон, Джефф Бриджес, Синтия Эриво, Джон Хэмм, Кэйли Спэни, Льюис Пуллман, Ксавье Долан, Ник Офферман, Ши Уигхэм, Кэтрин Изабель, Мэнни Хасинто, Марк О`Брайэн, Чарльз Халфорд, Джим О`Хейр, Джерри Нэйрн, Альвина Аугуст, Джонатан Уайтселл, Софиа Локлин Херт
    Studio: 20th Century Fox
    Rating: 5
    Long Description: Семь незнакомцев, у каждого из которых есть своя тайна, встречаются в заброшенном отеле Эль Рояль на озере Тахо. И этой ночью у каждого будет шанс на искупление… прежде чем всё пойдет к чертям.
    Description: Семь незнакомцев, у каждого из которых есть своя тайна, встречаются в заброшенном отеле Эль Рояль на озере Тахо. И этой ночью у каждого будет шанс на искупление… прежде чем всё пойдет к чертям.
    Release Date: 2018-10-12T07:00:00Z
    Genre: Thriller
    Artist: Drew Goddard
    Name: Bad Times At the El Royale
    Код: выделить все

    General
    Complete name : /Users/imac/HandBrake/Bad.Times.at.the.El.Royale.1080p.HD.m4v
    Format : MPEG-4
    Codec ID : M4V (M4V /M4A /mp42/isom)
    File size : 9.30 GiB
    Duration : 2h 21mn
    Overall bit rate mode : Variable
    Overall bit rate : 9 405 Kbps
    Movie name : Bad Times At the El Royale
    Performer : Drew Goddard
    Director : Дрю Годдард
    Actor : Крис Хемсворт/Дакота Джонсон/Джефф Бриджес/Синтия Эриво/Джон Хэмм/Кэйли Спэни/Льюис Пуллман/Ксавье Долан/Ник Офферман/Ши Уигхэм/Кэтрин Изабель/Мэнни Хасинто/Марк О`Брайэн/Чарльз Халфорд/Джим О`Хейр/Джерри Нэйрн/Альвина Аугуст/Джонатан Уайтселл/Софиа Локлин Херт
    Screenplay by : Дрю Годдард
    Producer : Дрю Годдард/Джереми Латчем/Стив Асбелл
    Production studio : 20th Century Fox
    Genre : Thriller
    ContentType : Short Film
    Description : Семь незнакомцев, у каждого из которых есть своя тайна, встречаются в заброшенном отеле Эль Рояль на озере Тахо. И этой ночью у каждого будет шанс на искупление… прежде чем всё пойдет к чертям.
    Recorded date : UTC 2018-10-12 07:00:00
    Encoded date : UTC 2018-12-30 09:19:51
    Tagged date : UTC 2018-12-30 09:22:26
    Copyright : © 2018 Twentieth Century Fox Film Corporation. All rights reserved.
    Cover : Yes
    Rating : None
    Title/Sort : Bad Times At the El Royale
    LongDescription : Семь незнакомцев, у каждого из которых есть своя тайна, встречаются в заброшенном отеле Эль Рояль на озере Тахо. И этой ночью у каждого будет шанс на искупление… прежде чем всё пойдет к чертям.
    AppleStoreCatalogID : 1438058811
    Vendor : Apple:vendor_id:2018-1047143
    ContentRating : mpaa|R|400|
    Video #1
    ID : 1
    Format : AVC
    Format/Info : Advanced Video Codec
    Format profile : High@L4
    Format settings : CABAC/4 Ref Frames
    Format settings, CABAC : Yes
    Format settings, ReFrames : 4 frames
    Codec ID : avc1
    Codec ID/Info : Advanced Video Coding
    Duration : 2h 21mn
    Source duration : 2h 21mn
    Bit rate : 8 000 Kbps
    Width : 1 920 pixels
    Height : 800 pixels
    Display aspect ratio : 2.40:1
    Frame rate mode : Variable
    Frame rate : 23.976 (24000/1001) fps
    Minimum frame rate : 23.974 fps
    Maximum frame rate : 23.981 fps
    Color space : YUV
    Chroma subsampling : 4:2:0
    Bit depth : 8 bits
    Scan type : Progressive
    Bits/(Pixel*Frame) : 0.217
    Stream size : 7.91 GiB (85%)
    Source stream size : 7.91 GiB (85%)
    Title : Main Program
    Writing library : x264 core 155 r2901 7d0ff22
    Encoding settings : cabac=1/ref=4/deblock=1:-2:-2/analyse=0x3:0x133/me=umh/subme=10/psy=1/psy_rd=1.00:0.15/mixed_ref=1/me_range=32/chroma_me=1/trellis=2/8x8dct=1/cqm=0/deadzone=21, 11/fast_pskip=1/chroma_qp_offset=-3/threads=25/lookahead_threads=6/sliced_threads=0/nr=0/decimate=0/interlaced=0/bluray_compat=0/constrained_intra=0/bframes=16/b_pyramid=2/b_adapt=2/b_bias=0/direct=3/weightb=1/open_gop=0/weightp=2/keyint=240/keyint_min=24/scenecut=40/intra_refresh=0/rc_lookahead=40/rc=2pass/mbtree=1/bitrate=8000/ratetol=1.0/qcomp=0.70/qpmin=0/qpmax=69/qpstep=4/cplxblur=20.0/qblur=0.5/ip_ratio=1.40/aq=1:1.00
    Language : English
    Encoded date : UTC 2018-12-30 09:19:51
    Tagged date : UTC 2018-12-30 09:20:24
    Color range : Limited
    Color primaries : BT.709
    Transfer characteristics : BT.709
    Matrix coefficients : BT.709
    Menus : 7, 8
    Codec configuration box : avcC
    Video #2
    ID : 8
    Format : JPEG
    Codec ID : jpeg
    Duration : 2h 21mn
    Bit rate mode : Variable
    Bit rate : 115 bps
    Width : 640 pixels
    Height : 266 pixels
    Display aspect ratio : 2.40:1
    Frame rate mode : Variable
    Frame rate : 0.001 fps
    Minimum frame rate : 0.001 fps
    Maximum frame rate : 0.010 fps
    Color space : YUV
    Chroma subsampling : 4:2:0
    Bit depth : 8 bits
    Compression mode : Lossy
    Bits/(Pixel*Frame) : 0.676
    Stream size : 155 KiB (0%)
    Title : Chapter Images
    Language : English
    Default : No
    Encoded date : UTC 2018-12-30 09:21:46
    Tagged date : UTC 2018-12-30 09:21:46
    Menu For : 1
    ColorSpace_ICC : RGB
    Audio #1
    ID : 2
    Format : AAC LC
    Format/Info : Advanced Audio Codec Low Complexity
    Codec ID : mp4a-40-2
    Duration : 2h 21mn
    Source duration : 2h 21mn
    Bit rate mode : Variable
    Bit rate : 156 Kbps
    Maximum bit rate : 234 Kbps
    Channel(s) : 2 channels
    Channel layout : L R
    Sampling rate : 48.0 KHz
    Frame rate : 46.875 fps (1024 SPF)
    Compression mode : Lossy
    Stream size : 158 MiB (2%)
    Source stream size : 158 MiB (2%)
    Title : Russian Stereo
    Language : Russian
    Default : Yes
    Alternate group : 1
    Encoded date : UTC 2018-12-30 09:19:51
    Tagged date : UTC 2018-12-30 09:21:42
    Fallback From : 4
    Audio #2
    ID : 3
    Format : AAC LC
    Format/Info : Advanced Audio Codec Low Complexity
    Codec ID : mp4a-40-2
    Duration : 2h 21mn
    Source duration : 2h 21mn
    Bit rate mode : Variable
    Bit rate : 158 Kbps
    Maximum bit rate : 250 Kbps
    Channel(s) : 2 channels
    Channel layout : L R
    Sampling rate : 48.0 KHz
    Frame rate : 46.875 fps (1024 SPF)
    Compression mode : Lossy
    Stream size : 160 MiB (2%)
    Source stream size : 160 MiB (2%)
    Title : English Stereo
    Language : English
    Default : No
    Alternate group : 1
    Encoded date : UTC 2018-12-30 09:19:51
    Tagged date : UTC 2018-12-30 09:21:42
    Fallback From : 5
    Audio #3
    ID : 4
    Format : AC-3
    Format/Info : Audio Coding 3
    Commercial name : Dolby Digital
    Codec ID : ac-3
    Duration : 2h 21mn
    Bit rate mode : Constant
    Bit rate : 448 Kbps
    Channel(s) : 6 channels
    Channel layout : L R C LFE Ls Rs
    Sampling rate : 48.0 KHz
    Frame rate : 31.250 fps (1536 SPF)
    Bit depth : 16 bits
    Compression mode : Lossy
    Stream size : 454 MiB (5%)
    Title : Russian DD 5.1
    Language : Russian
    Service kind : Complete Main
    Default : Inherited From: 2
    Alternate group : 1
    Encoded date : UTC 2018-12-30 09:19:51
    Tagged date : UTC 2018-12-30 09:21:42
    Fallback To : 2
    Audio #4
    ID : 5
    Format : AC-3
    Format/Info : Audio Coding 3
    Commercial name : Dolby Digital
    Codec ID : ac-3
    Duration : 2h 21mn
    Bit rate mode : Constant
    Bit rate : 640 Kbps
    Channel(s) : 6 channels
    Channel layout : L R C LFE Ls Rs
    Sampling rate : 48.0 KHz
    Frame rate : 31.250 fps (1536 SPF)
    Bit depth : 16 bits
    Compression mode : Lossy
    Stream size : 648 MiB (7%)
    Title : English DD 5.1
    Language : English
    Service kind : Complete Main
    Default : No
    Alternate group : 1
    Encoded date : UTC 2018-12-30 09:19:51
    Tagged date : UTC 2018-12-30 09:21:42
    Fallback To : 3
    Text
    ID : 6
    Format : Timed Text
    Muxing mode : sbtl
    Codec ID : tx3g
    Duration : 2h 18mn
    Bit rate mode : Variable
    Bit rate : 46 bps
    Stream size : 46.7 KiB (0%)
    Title : English full
    Language : English
    Default : Yes
    Forced : No
    Alternate group : 2
    Encoded date : UTC 2018-12-30 09:19:51
    Tagged date : UTC 2018-12-30 09:21:40
    Menu #1
    00:00:00.000 : Chapter 1
    00:04:19.593 : Chapter 2
    00:19:22.078 : Chapter 3
    00:34:32.904 : Chapter 4
    00:49:24.712 : Chapter 5
    00:51:19.952 : Chapter 6
    01:16:01.474 : Chapter 7
    01:37:13.453 : Chapter 8
    02:03:56.721 : Chapter 9
    02:14:09.041 : Chapter 10
    02:15:45.429 : Chapter 11
    Menu #2
    ID : 7
    Codec ID : text
    Duration : 2h 21mn
    Language : English
    Encoded date : UTC 2018-12-30 09:21:42
    Tagged date : UTC 2018-12-30 09:21:42
    Menu For : 1
    00:00:00.000 : Chapter 1
    00:04:19.593 : Chapter 2
    00:19:22.078 : Chapter 3
    00:34:32.904 : Chapter 4
    00:49:24.712 : Chapter 5
    00:51:19.952 : Chapter 6
    01:16:01.474 : Chapter 7
    01:37:13.453 : Chapter 8
    02:03:56.721 : Chapter 9
    02:14:09.041 : Chapter 10
    02:15:45.429 : Chapter 11
    Bit rate mode : VBR
    Код: выделить все

    x264 [info]: frame I:1287 Avg QP:16.19 size:226957
    x264 [info]: frame P:38626 Avg QP:18.83 size: 70323
    x264 [info]: frame B:163833 Avg QP:19.56 size: 33475
    x264 [info]: consecutive B-frames: 1.4% 1.3% 6.0% 7.0% 11.6% 58.4% 6.9% 2.1% 1.4% 1.2% 0.9% 0.7% 0.3% 0.4% 0.1% 0.2% 0.3%
    x264 [info]: mb I I16..4: 22.9% 66.0% 11.2%
    x264 [info]: mb P I16..4: 1.3% 11.5% 0.7% P16..4: 46.9% 20.1% 12.7% 0.3% 0.1% skip: 6.5%
    x264 [info]: mb B I16..4: 0.2% 1.7% 0.0% B16..8: 48.3% 10.0% 2.3% direct: 7.7% skip:29.8% L0:46.8% L1:44.0% BI: 9.2%
    x264 [info]: 8x8 transform intra:83.0% inter:63.5%
    x264 [info]: direct mvs spatial:98.9% temporal:1.1%
    x264 [info]: coded y, uvDC, uvAC intra: 94.7% 82.7% 64.2% inter: 35.1% 28.2% 9.9%
    x264 [info]: i16 v, h, dc, p: 15% 9% 33% 43%
    x264 [info]: i8 v, h, dc, ddl, ddr, vr, hd, vl, hu: 10% 7% 10% 10% 14% 13% 12% 12% 12%
    x264 [info]: i4 v, h, dc, ddl, ddr, vr, hd, vl, hu: 10% 8% 5% 10% 15% 15% 14% 12% 13%
    x264 [info]: i8c dc, h, v, p: 47% 18% 18% 16%
    x264 [info]: Weighted P-Frames: Y:5.8% UV:4.3%
    x264 [info]: ref P L0: 47.8% 9.4% 28.4% 13.4% 1.0% 0.0%
    x264 [info]: ref B L0: 79.9% 16.6% 3.6%
    x264 [info]: ref B L1: 90.2% 9.8%
    x264 [info]: kb/s:7995.08
    Скриншоты :


    Все одноименные релизы в Клубе


    Релиз подготовлен для просмотра наApple TV, iPad, iPhone, iPod Touch.
    Для просмотра данного релиза на компьютере с ОС Windows рекомендуется использоватьVLC media player


    Ничего хорошего в отеле «Эль рояль»/Bad Times at the El Royale (2018) BDRip [1080p] ATV
    Рейтинг →
     (голосов: 1, оценка 3/5, голосовать можно 1 раз )

    Другие торренты по теме:

  • Ничего хорошего в отеле «Эль рояль» / Bad Times at the El Royale (2018) TS [AD]
  • Ничего хорошего в отеле «Эль рояль» / Bad Times at the El Royale (2018) BDRip [H.264 / 720p] [Line, AD]
  • Ничего хорошего в отеле «Эль рояль» / Bad Times at the El Royale (2018) BDRip
  • Ничего хорошего в отеле «Эль рояль» / Bad Times at the El Royale (2018) BDRip [H.264 / 720p-LQ]
  • Ничего хорошего в отеле «Эль рояль» / Bad Times at the El Royale (2018) BDRip [H.264 / 1080p-LQ]
  • Ничего хорошего в отеле «Эль рояль» / Bad Times at the El Royale (2018) BDRip [H.264 / 1080p]
  • Ничего хорошего в отеле «Эль рояль» / Bad Times at the El Royale (2018) BDRemux [H.264 / 1080p]
  • Ничего хорошего в отеле «Эль рояль» / Bad Times at the El Royale (2018) HDRip


    • Комментарии (0):

      Информация

      Информация

        Посетители, находящиеся в группе Гости, не могут оставлять комментарии в данной новости.

        ↓ Меню




        ↓ Опрос

        Вы добавили сайт в закладки?
        Да
        Нет


        Top 10 за месяц (Программы)