.
Авторизация | Регистрация
Хочешь лучшие торренты? Добавь свой email!
Добавить

Торрент скачать бесплатно

  • support: webmaster@btracker.club
» » Кин / Kin (2018) WEB-DLRip [576p] iPad торрент скачать бесплатно


    Кин / Kin (2018) WEB-DLRip [576p] iPad торрент скачать бесплатно

    Опубликовал: fregat | Дата: 6-12-2018, 05:00 | .torrent скачали: 0

    Кин / Kin (2018) WEB-DLRip [576p] iPadПроизводство : США
    Жанр : Фантастика, боевик
    Продолжительность : 01: 42: 42
    Перевод : Дублированный(iTunes)
    Субтитры : Английские
    Режиссер : Джонатан Бэйкер, Джош Бэйкер
    Актеры : Майлс Труитт, Джек Рейнор, Деннис Куэйд, Зои Кравиц, Джеймс Франко, Кэрри Кун, Йен Мэтьюз, Гэвин Фокс, Стефан Гарно, Лукас Пенар
    Мировая премьера : 29 августа 2018

    Описание : Обнаружив инопланетное оружие, об истинной мощи которого можно только догадываться, обычный школьник оказывается в эпицентре крупных проблем: охоту на него и его брата открывает армия пришельцев, спецслужбы и гангстеры.
    Качество : WEB-DLRip 576p
    Контейнер : M4V
    Видео : H.264, 1024x432, 2.40: 1, 2 200 Kbps, 23.976 fps
    Аудио 1 : Русский/Дублированный (iTunes), AAC/2.0/128 Kbps/48.0 KHz
    Аудио 2 : Английский/Оригинальная дорожка , AAC/2.0/128 Kbps/48.0 KHz
    Код: выделить все

    Sort Name: Kin
    XID: Apple:vendor_id:2018-1000742
    contentID: 1434634632
    Screenwriters: Дэниэл Кэйси, Джонатан Бэйкер, Джош Бэйкер
    Producers: Джефф Аркусс, Дэн Коэн, Дэвид Гросс
    Director: Джонатан Бэйкер, Джош Бэйкер
    Cast: Майлс Труитт, Джек Рейнор, Дэннис Куэйд, Зои Кравиц, Джеймс Франко, Кэрри Кун, Йен Мэтьюз, Гэвин Фокс, Стефан Гарно, Лукас Пенар
    Studio: Lionsgate
    Rating: 4
    Long Description: Обнаружив инопланетное оружие, об истинной мощи которого можно только догадываться, обычный школьник оказывается в эпицентре крупных проблем: охоту на него и его брата открывает армия пришельцев, спецслужбы и гангстеры.
    Он не выбирал эту судьбу, но теперь только от него зависит — спасет загадочный артефакт наш мир или погубит…
    Description: Обнаружив инопланетное оружие, об истинной мощи которого можно только догадываться, обычный школьник оказывается в эпицентре крупных проблем: охоту на него и его брата открывает армия пришельцев, спецслужбы и гангстеры.
    Release Date: 2018-08-31T07:00:00Z
    Genre: Sci-Fi Fantasy
    Artist: Jonathan Baker Josh Baker
    Name: Kin
    Код: выделить все

    General
    Complete name : /Users/imac/HandBrake/Kin.(SD).(pk).m4v
    Format : MPEG-4
    Codec ID : M4V
    File size : 1.76 GiB
    Duration : 1h 42mn
    Overall bit rate mode : Variable
    Overall bit rate : 2 458 Kbps
    Movie name : Kin
    Performer : Jonathan Baker Josh Baker
    Director : Джонатан Бэйкер/Джош Бэйкер
    Actor : Майлс Труитт/Джек Рейнор/Дэннис Куэйд/Зои Кравиц/Джеймс Франко/Кэрри Кун/Йен Мэтьюз/Гэвин Фокс/Стефан Гарно/Лукас Пенар
    Screenplay by : Дэниэл Кэйси/Джонатан Бэйкер/Джош Бэйкер
    Producer : Джефф Аркусс/Дэн Коэн/Дэвид Гросс
    Production studio : Lionsgate
    Genre : Sci-Fi Fantasy
    ContentType : Short Film
    Description : Обнаружив инопланетное оружие, об истинной мощи которого можно только догадываться, обычный школьник оказывается в эпицентре крупных проблем: охоту на него и его брата открывает армия пришельцев, спецслужбы и гангстеры.
    Recorded date : UTC 2018-08-31 07:00:00
    Encoded date : UTC 2018-12-05 11:05:09
    Tagged date : UTC 2018-12-05 11:05:42
    Cover : Yes
    Rating : None
    Title/Sort : Kin
    LongDescription : Обнаружив инопланетное оружие, об истинной мощи которого можно только догадываться, обычный школьник оказывается в эпицентре крупных проблем: охоту на него и его брата открывает армия пришельцев, спецслужбы и гангстеры./Он не выбирал эту судьбу, но теперь только от него зависит — спасет загадочный артефакт наш мир или погубит…
    AppleStoreCatalogID : 1434634632
    Vendor : Apple:vendor_id:2018-1000742
    ContentRating : mpaa|PG-13|300|
    Video #1
    ID : 1
    Format : AVC
    Format/Info : Advanced Video Codec
    Format profile :High@L3.1
    Format settings, CABAC : Yes
    Format settings, ReFrames : 9 frames
    Codec ID : avc1
    Codec ID/Info : Advanced Video Coding
    Duration : 1h 42mn
    Source duration : 1h 42mn
    Bit rate : 2 200 Kbps
    Width : 1 024 pixels
    Height : 432 pixels
    Display aspect ratio : 2.40:1
    Frame rate mode : Variable
    Frame rate : 23.976 fps
    Minimum frame rate : 23.974 fps
    Maximum frame rate : 23.981 fps
    Color space : YUV
    Chroma subsampling : 4:2:0
    Bit depth : 8 bits
    Scan type : Progressive
    Bits/(Pixel*Frame) : 0.207
    Stream size : 1.58 GiB (89%)
    Source stream size : 1.58 GiB (89%)
    Title : Main Program
    Writing library : x264 core 155 r2901 7d0ff22
    Encoding settings : cabac=1/ref=9/deblock=1:0:0/analyse=0x3:0x113/me=umh/subme=9/psy=1/psy_rd=1.00:0.00/mixed_ref=1/me_range=32/chroma_me=1/trellis=1/8x8dct=1/cqm=0/deadzone=21, 11/fast_pskip=1/chroma_qp_offset=-2/threads=13/lookahead_threads=1/sliced_threads=0/nr=0/decimate=1/interlaced=0/bluray_compat=0/constrained_intra=0/bframes=6/b_pyramid=2/b_adapt=2/b_bias=0/direct=1/weightb=1/open_gop=0/weightp=2/keyint=240/keyint_min=24/scenecut=40/intra_refresh=0/rc_lookahead=40/rc=2pass/mbtree=1/bitrate=2200/ratetol=1.0/qcomp=0.60/qpmin=0/qpmax=69/qpstep=4/cplxblur=20.0/qblur=0.5/ip_ratio=1.40/aq=1:1.00
    Language : English
    Encoded date : UTC 2018-12-05 11:05:09
    Tagged date : UTC 2018-12-05 11:05:14
    Color range : Limited
    Color primaries : BT.709
    Transfer characteristics : BT.709
    Matrix coefficients : BT.709
    Video #2
    ID : 6
    Format : JPEG
    Codec ID : jpeg
    Duration : 1h 42mn
    Bit rate mode : Variable
    Bit rate : 366 bps
    Width : 640 pixels
    Height : 270 pixels
    Display aspect ratio : 2.40:1
    Frame rate mode : Variable
    Frame rate : 0.002 fps
    Minimum frame rate : 0.002 fps
    Maximum frame rate : 0.003 fps
    Color space : YUV
    Chroma subsampling : 4:2:0
    Bit depth : 8 bits
    Compression mode : Lossy
    Bits/(Pixel*Frame) : 1.059
    Stream size : 246 KiB (0%)
    Title : Chapter Images
    Language : English
    Encoded date : UTC 2018-12-05 11:05:19
    Tagged date : UTC 2018-12-05 11:05:19
    Audio #1
    ID : 2
    Format : AAC
    Format/Info : Advanced Audio Codec
    Format profile : LC
    Codec ID : 40
    Duration : 1h 42mn
    Source duration : 1h 42mn
    Bit rate mode : Variable
    Bit rate : 126 Kbps
    Maximum bit rate : 190 Kbps
    Channel(s) : 2 channels
    Channel positions : Front: L R
    Sampling rate : 48.0 KHz
    Compression mode : Lossy
    Stream size : 92.3 MiB (5%)
    Source stream size : 92.3 MiB (5%)
    Title : Russian Stereo
    Language : Russian
    Encoded date : UTC 2018-12-05 11:05:09
    Tagged date : UTC 2018-12-05 11:05:17
    Audio #2
    ID : 3
    Format : AAC
    Format/Info : Advanced Audio Codec
    Format profile : LC
    Codec ID : 40
    Duration : 1h 42mn
    Source duration : 1h 42mn
    Bit rate mode : Variable
    Bit rate : 126 Kbps
    Maximum bit rate : 198 Kbps
    Channel(s) : 2 channels
    Channel positions : Front: L R
    Sampling rate : 48.0 KHz
    Compression mode : Lossy
    Stream size : 92.2 MiB (5%)
    Source stream size : 92.2 MiB (5%)
    Title : English Stereo
    Language : English
    Encoded date : UTC 2018-12-05 11:05:09
    Tagged date : UTC 2018-12-05 11:05:17
    Text
    ID : 4
    Format : Timed Text
    Muxing mode : sbtl
    Codec ID : tx3g
    Duration : 1h 36mn
    Bit rate mode : Variable
    Bit rate : 58 bps
    Stream size : 40.7 KiB (0%)
    Title : English full
    Language : English
    Encoded date : UTC 2018-12-05 11:05:09
    Tagged date : UTC 2018-12-05 11:05:10
    Menu #1
    00:00:00.000 : 1
    00:07:31.000 : 2
    00:17:57.000 : 3
    00:27:19.000 : 4
    00:37:52.000 : 5
    00:46:41.000 : 6
    00:56:58.000 : 7
    01:06:37.000 : 8
    01:15:09.000 : 9
    01:25:50.000 : 10
    01:36:26.000 : 11
    Menu #2
    ID : 5
    Codec ID : text
    Duration : 1h 42mn
    Language : English
    Encoded date : UTC 2018-12-05 11:05:17
    Tagged date : UTC 2018-12-05 11:05:17
    00:00:00.000 : 1
    00:07:31.000 : 2
    00:17:57.000 : 3
    00:27:19.000 : 4
    00:37:52.000 : 5
    00:46:41.000 : 6
    00:56:58.000 : 7
    01:06:37.000 : 8
    01:15:09.000 : 9
    01:25:50.000 : 10
    01:36:26.000 : 11
    Bit rate mode : VBR
    Код: выделить все

    x264 [info]: frame I:1350 Avg QP:10.00 size: 64682
    x264 [info]: frame P:31357 Avg QP:12.48 size: 23786
    x264 [info]: frame B:115057 Avg QP:15.11 size: 7482
    x264 [info]: consecutive B-frames: 2.4% 2.6% 8.3% 11.6% 16.7% 45.0% 13.4%
    x264 [info]: mb I I16..4: 11.0% 65.7% 23.2%
    x264 [info]: mb P I16..4: 3.3% 17.1% 4.1% P16..4: 26.4% 24.5% 15.3% 0.0% 0.0% skip: 9.4%
    x264 [info]: mb B I16..4: 0.4% 1.9% 0.4% B16..8: 30.2% 15.8% 4.6% direct: 6.4% skip:40.3% L0:45.1% L1:39.7% BI:15.2%
    x264 [info]: 8x8 transform intra:69.6% inter:57.5%
    x264 [info]: coded y, uvDC, uvAC intra: 79.7% 68.5% 50.1% inter: 27.6% 17.4% 2.5%
    x264 [info]: i16 v, h, dc, p: 40% 21% 8% 31%
    x264 [info]: i8 v, h, dc, ddl, ddr, vr, hd, vl, hu: 16% 12% 15% 7% 9% 10% 9% 10% 11%
    x264 [info]: i4 v, h, dc, ddl, ddr, vr, hd, vl, hu: 17% 11% 9% 8% 12% 12% 11% 10% 11%
    x264 [info]: i8c dc, h, v, p: 55% 22% 17% 6%
    x264 [info]: Weighted P-Frames: Y:2.7% UV:1.2%
    x264 [info]: ref P L0: 48.2% 7.8% 18.4% 7.4% 5.9% 4.1% 3.7% 2.1% 2.3% 0.1% 0.0%
    x264 [info]: ref B L0: 72.0% 12.6% 6.0% 3.2% 2.4% 2.0% 1.3% 0.4%
    x264 [info]: ref B L1: 94.3% 5.7%
    x264 [info]: kb/s:2198.92
    Скриншоты :


    Все одноименные релизы в Клубе


    Релиз подготовлен для просмотра наApple TV, iPad, iPhone, iPod Touch.
    Для просмотра данного релиза на компьютере с ОС Windows рекомендуется использоватьVLC media player


    Кин/Kin (2018) WEB-DLRip [576p] iPad
    Рейтинг →
     (голосов: 1, оценка 5/5, голосовать можно 1 раз )

    Другие торренты по теме:

  • Судная ночь 2 / The Purge: Anarchy (2014) WEB-DLRip [576p] iPad
  • Посвященный / The Giver (2014) WEB-DLRip [576p] iPad
  • Снайпер: Наследие / Sniper: Legacy (2014) WEB-DLRip [576p] iPad
  • Мачо и ботан 2 / 22 Jump Street (2014) WEB-DLRip [576p] iPad [Line]
  • Планета обезьян: Революция / Dawn of the Planet of the Apes (2014) WEB-DLRip [576p] iPad [Line] скачать через торрент бесплатно
  • Черепашки-ниндзя / Teenage Mutant Ninja Turtles (2014) WEB-DLRip [576p] iPad [Line] скачать через торрент бесплатно
  • Беглецы (2014) WEB-DLRip [576p] iPad скачать через торрент бесплатно
  • Люси / Lucy (2014) WEB-DLRip [576p] iPad скачать через торрент бесплатно


    • Комментарии (0):

      Информация

      Информация

        Посетители, находящиеся в группе Гости, не могут оставлять комментарии в данной новости.

        ↓ Меню




        ↓ Опрос

        Вы добавили сайт в закладки?
        Да
        Нет


        Top 10 за месяц (Программы)