.
Авторизация | Регистрация
Хочешь лучшие торренты? Добавь свой email!
Добавить

Торрент скачать бесплатно

  • support: webmaster@btracker.club
» » Галвестон / Galveston (2018) WEB-DLRip [576p] iPad торрент скачать бесплатно


    Галвестон / Galveston (2018) WEB-DLRip [576p] iPad торрент скачать бесплатно

    Опубликовал: fregat | Дата: 6-12-2018, 05:00 | .torrent скачали: 0

    Галвестон / Galveston (2018) WEB-DLRip [576p] iPadПроизводство : США
    Жанр : Боевик, триллер, драма, криминал
    Продолжительность : 01: 33: 25
    Перевод : Дублированный(iTunes)
    Субтитры : Русские, Английские
    Режиссер : Мелани Лоран
    Актеры : Бен Фостер, Эль Фаннинг, Лили Рейнхарт, Эдеперо Одуйе, Роберт Арамайо, Мария Вальверде, Бо Бриджес, С.К. МакФарланд, Джеффри Гроувер, Кристофер Амитрано
    Мировая премьера : 10 марта 2018

    Описание : История о бывшем приспешнике мафиози Рое Кэди, который имел неосторожность перейти дорогу своему влиятельному боссу. Став мишенью наёмных убийц, Кэди пускается в бега и по стечению обстоятельств берёт ответственность за жизнь ещё и своей неожиданной спутницы — совсем молоденькой проститутки.
    Качество : WEB-DLRip 576p
    Контейнер : M4V
    Видео : H.264, 1024x432, 2.40: 1, 2 200 Kbps, 23.976 fps
    Аудио 1 : Русский/Дублированный (iTunes), AAC/2.0/128 Kbps/48.0 KHz
    Аудио 2 : Английский/Оригинальная дорожка , AAC/2.0/128 Kbps/48.0 KHz
    Код: выделить все

    Sort Name: Galveston
    XID: Apple:vendor_id:2018-696499
    contentID: 1436835482
    Copyright: © 2018 Emerald Shores LLC All Rights Reserved.
    Screenwriters: Ник Пиццолатто
    Producers: Тайлер Дэвидсон, Декстер Брафф, Патрик Дэйли
    Director: Мелани Лоран
    Cast: Бен Фостер, Джеффри Гроувер, Кристофер Амитрано, Марк Хикс, Мария Вальверде, Бо Бриджес, Майкл Рэй Эскамиллья, Дж. Питер Кинг, Джимми Ли Сессомс, Эль Фаннинг
    Studio: RLJE Films
    Rating: 0
    Long Description: История о бывшем приспешнике мафиози Рое Кэди, который имел неосторожность перейти дорогу своему влиятельному боссу. Став мишенью наёмных убийц, Кэди пускается в бега и по стечению обстоятельств берёт ответственность за жизнь ещё и своей неожиданной спутницы - совсем молоденькой проститутки.
    Description: История о бывшем приспешнике мафиози Рое Кэди, который имел неосторожность перейти дорогу своему влиятельному боссу. Став мишенью наёмных убийц, Кэди пускается в бега и по стечению обстоятельств берёт ответственность за жизнь ещё и своей неожиданной спутницы - совсем молоденькой проститутки.
    Release Date: 2018-03-10T08:00:00Z
    Genre: Thriller
    Artist: Melanie Laurent
    Name: Galveston
    Код: выделить все

    General
    Complete name : /Users/imac/HandBrake/Galveston.(SD).(pk).m4v
    Format : MPEG-4
    Codec ID : M4V
    File size : 1.60 GiB
    Duration : 1h 33mn
    Overall bit rate mode : Variable
    Overall bit rate : 2 453 Kbps
    Movie name : Galveston
    Performer : Melanie Laurent
    Director : Мелани Лоран
    Actor : Бен Фостер/Джеффри Гроувер/Кристофер Амитрано/Марк Хикс/Мария Вальверде/Бо Бриджес/Майкл Рэй Эскамиллья/Дж. Питер Кинг/Джимми Ли Сессомс/Эль Фаннинг
    Screenplay by : Ник Пиццолатто
    Producer : Тайлер Дэвидсон/Декстер Брафф/Патрик Дэйли
    Production studio : RLJE Films
    Genre : Thriller
    ContentType : Short Film
    Description : История о бывшем приспешнике мафиози Рое Кэди, который имел неосторожность перейти дорогу своему влиятельному боссу. Став мишенью наёмных убийц, Кэди пускается в бега и по стечению обстоятельств берёт ответственность за жизнь ещё и своей неожиданной спутницы - совсем молоденькой проститутки.
    Recorded date : UTC 2018-03-10 08:00:00
    Encoded date : UTC 2018-12-05 09:56:34
    Tagged date : UTC 2018-12-05 09:57:37
    Copyright : © 2018 Emerald Shores LLC All Rights Reserved.
    Cover : Yes
    Rating : None
    Title/Sort : Galveston
    LongDescription : История о бывшем приспешнике мафиози Рое Кэди, который имел неосторожность перейти дорогу своему влиятельному боссу. Став мишенью наёмных убийц, Кэди пускается в бега и по стечению обстоятельств берёт ответственность за жизнь ещё и своей неожиданной спутницы - совсем молоденькой проститутки.
    AppleStoreCatalogID : 1436835482
    Vendor : Apple:vendor_id:2018-696499
    ContentRating : mpaa|Unrated|???|
    Video #1
    ID : 1
    Format : AVC
    Format/Info : Advanced Video Codec
    Format profile :High@L3.1
    Format settings, CABAC : Yes
    Format settings, ReFrames : 9 frames
    Codec ID : avc1
    Codec ID/Info : Advanced Video Coding
    Duration : 1h 33mn
    Source duration : 1h 33mn
    Bit rate : 2 200 Kbps
    Width : 1 024 pixels
    Height : 432 pixels
    Display aspect ratio : 2.40:1
    Frame rate mode : Variable
    Frame rate : 23.976 fps
    Minimum frame rate : 23.974 fps
    Maximum frame rate : 23.981 fps
    Color space : YUV
    Chroma subsampling : 4:2:0
    Bit depth : 8 bits
    Scan type : Progressive
    Bits/(Pixel*Frame) : 0.207
    Stream size : 1.43 GiB (89%)
    Source stream size : 1.43 GiB (89%)
    Title : Main Program
    Writing library : x264 core 155 r2901 7d0ff22
    Encoding settings : cabac=1/ref=9/deblock=1:0:0/analyse=0x3:0x113/me=umh/subme=9/psy=1/psy_rd=1.00:0.00/mixed_ref=1/me_range=32/chroma_me=1/trellis=1/8x8dct=1/cqm=0/deadzone=21, 11/fast_pskip=1/chroma_qp_offset=-2/threads=13/lookahead_threads=1/sliced_threads=0/nr=0/decimate=1/interlaced=0/bluray_compat=0/constrained_intra=0/bframes=6/b_pyramid=2/b_adapt=2/b_bias=0/direct=1/weightb=1/open_gop=0/weightp=2/keyint=240/keyint_min=24/scenecut=40/intra_refresh=0/rc_lookahead=40/rc=2pass/mbtree=1/bitrate=2200/ratetol=1.0/qcomp=0.60/qpmin=0/qpmax=69/qpstep=4/cplxblur=20.0/qblur=0.5/ip_ratio=1.40/aq=1:1.00
    Language : English
    Encoded date : UTC 2018-12-05 09:56:34
    Tagged date : UTC 2018-12-05 09:56:39
    Color range : Limited
    Color primaries : BT.709
    Transfer characteristics : BT.709
    Matrix coefficients : BT.709
    Video #2
    ID : 7
    Format : JPEG
    Codec ID : jpeg
    Duration : 1h 33mn
    Bit rate mode : Variable
    Bit rate : 395 bps
    Width : 640 pixels
    Height : 270 pixels
    Display aspect ratio : 2.40:1
    Frame rate mode : Variable
    Frame rate : 0.002 fps
    Minimum frame rate : 0.001 fps
    Maximum frame rate : 0.003 fps
    Color space : YUV
    Chroma subsampling : 4:2:0
    Bit depth : 8 bits
    Compression mode : Lossy
    Bits/(Pixel*Frame) : 1.143
    Stream size : 241 KiB (0%)
    Title : Chapter Images
    Language : English
    Encoded date : UTC 2018-12-05 09:56:44
    Tagged date : UTC 2018-12-05 09:56:44
    Audio #1
    ID : 2
    Format : AAC
    Format/Info : Advanced Audio Codec
    Format profile : LC
    Codec ID : 40
    Duration : 1h 33mn
    Source duration : 1h 33mn
    Bit rate mode : Variable
    Bit rate : 126 Kbps
    Maximum bit rate : 231 Kbps
    Channel(s) : 2 channels
    Channel positions : Front: L R
    Sampling rate : 48.0 KHz
    Compression mode : Lossy
    Stream size : 84.4 MiB (5%)
    Source stream size : 84.4 MiB (5%)
    Title : Russian Stereo
    Language : Russian
    Encoded date : UTC 2018-12-05 09:56:34
    Tagged date : UTC 2018-12-05 09:56:42
    Audio #2
    ID : 3
    Format : AAC
    Format/Info : Advanced Audio Codec
    Format profile : LC
    Codec ID : 40
    Duration : 1h 33mn
    Source duration : 1h 33mn
    Bit rate mode : Variable
    Bit rate : 125 Kbps
    Maximum bit rate : 230 Kbps
    Channel(s) : 2 channels
    Channel positions : Front: L R
    Sampling rate : 48.0 KHz
    Compression mode : Lossy
    Stream size : 83.6 MiB (5%)
    Source stream size : 83.6 MiB (5%)
    Title : English Stereo
    Language : English
    Encoded date : UTC 2018-12-05 09:56:34
    Tagged date : UTC 2018-12-05 09:56:42
    Text #1
    ID : 4
    Format : Timed Text
    Muxing mode : sbtl
    Codec ID : tx3g
    Duration : 1h 32mn
    Bit rate mode : Variable
    Bit rate : 53 bps
    Stream size : 35.9 KiB (0%)
    Title : Russian full
    Language : Russian
    Encoded date : UTC 2018-12-05 09:56:34
    Tagged date : UTC 2018-12-05 09:56:35
    Text #2
    ID : 5
    Format : Timed Text
    Muxing mode : sbtl
    Codec ID : tx3g
    Duration : 1h 31mn
    Bit rate mode : Variable
    Bit rate : 53 bps
    Stream size : 35.7 KiB (0%)
    Title : English full
    Language : English
    Encoded date : UTC 2018-12-05 09:56:34
    Tagged date : UTC 2018-12-05 09:56:35
    Menu #1
    00:00:00.000 : 1
    00:10:31.172 : 2
    00:20:36.485 : 3
    00:27:37.572 : 4
    00:40:06.529 : 5
    00:50:32.404 : 6
    01:02:35.919 : 7
    01:08:36.988 : 8
    01:19:32.601 : 9
    01:27:28.868 : 10
    Menu #2
    ID : 6
    Codec ID : text
    Duration : 1h 33mn
    Language : English
    Encoded date : UTC 2018-12-05 09:56:42
    Tagged date : UTC 2018-12-05 09:56:42
    00:00:00.000 : 1
    00:10:31.172 : 2
    00:20:36.485 : 3
    00:27:37.572 : 4
    00:40:06.529 : 5
    00:50:32.404 : 6
    01:02:35.919 : 7
    01:08:36.988 : 8
    01:19:32.601 : 9
    01:27:28.868 : 10
    Bit rate mode : VBR
    Код: выделить все

    x264 [info]: frame I:754 Avg QP: 9.82 size: 66851
    x264 [info]: frame P:31593 Avg QP:12.30 size: 22765
    x264 [info]: frame B:101938 Avg QP:14.09 size: 7522
    x264 [info]: consecutive B-frames: 1.5% 2.4% 4.9% 50.4% 14.0% 22.6% 4.2%
    x264 [info]: mb I I16..4: 12.2% 71.6% 16.2%
    x264 [info]: mb P I16..4: 1.4% 7.7% 1.5% P16..4: 30.4% 29.9% 21.0% 0.0% 0.0% skip: 8.2%
    x264 [info]: mb B I16..4: 0.1% 0.8% 0.2% B16..8: 32.8% 15.7% 4.8% direct: 6.5% skip:39.1% L0:45.5% L1:42.5% BI:12.0%
    x264 [info]: 8x8 transform intra:71.8% inter:63.2%
    x264 [info]: coded y, uvDC, uvAC intra: 85.6% 88.0% 80.1% inter: 30.0% 26.2% 7.6%
    x264 [info]: i16 v, h, dc, p: 43% 13% 11% 33%
    x264 [info]: i8 v, h, dc, ddl, ddr, vr, hd, vl, hu: 12% 10% 12% 9% 11% 12% 11% 11% 13%
    x264 [info]: i4 v, h, dc, ddl, ddr, vr, hd, vl, hu: 10% 11% 4% 9% 13% 13% 13% 11% 15%
    x264 [info]: i8c dc, h, v, p: 52% 20% 16% 12%
    x264 [info]: Weighted P-Frames: Y:2.6% UV:1.4%
    x264 [info]: ref P L0: 49.2% 5.4% 17.7% 7.8% 6.0% 4.6% 4.6% 2.5% 2.2% 0.1% 0.0%
    x264 [info]: ref B L0: 70.2% 13.1% 6.7% 3.3% 2.7% 2.0% 1.5% 0.4%
    x264 [info]: ref B L1: 94.1% 5.9%
    x264 [info]: kb/s:2194.52
    Скриншоты :


    Все одноименные релизы в Клубе


    Релиз подготовлен для просмотра наApple TV, iPad, iPhone, iPod Touch.
    Для просмотра данного релиза на компьютере с ОС Windows рекомендуется использоватьVLC media player


    Галвестон/Galveston (2018) WEB-DLRip [576p] iPad
    Рейтинг →
     (голосов: 1, оценка 5/5, голосовать можно 1 раз )

    Другие торренты по теме:

  • Галвестон / Galveston (2018) WEB-DLRip [MVO]
  • Галвестон / Galveston (2018) WEB-DL [H.264 / 1080p-LQ] [MVO]
  • Галвестон / Galveston (2018) WEB-DL [H.264 / 1080p-LQ] [MVO]
  • Галвестон / Galveston (2018) WEB-DL [MVO]
  • Галвестон / Galveston (2018) WEB-DLRip [H.264 / 1080p-LQ] [Line, AD]
  • Галвестон / Galveston (2018) WEB-DL [1080p] ATV (MVO)
  • Галвестон / Galveston (2018) WEB-DL [H.264 / 1080p-LQ]
  • Галвестон / Galveston (2018) WEB-DLRip


    • Комментарии (0):

      Информация

      Информация

        Посетители, находящиеся в группе Гости, не могут оставлять комментарии в данной новости.

        ↓ Меню




        ↓ Опрос

        Вы добавили сайт в закладки?
        Да
        Нет


        Top 10 за месяц (Программы)