.
Авторизация | Регистрация
Хочешь лучшие торренты? Добавь свой email!
Добавить

Торрент скачать бесплатно

  • support: webmaster@btracker.club
» » Мег: Монстр глубины / The Meg (2018) BDRip [1080p] ATV торрент скачать бесплатно


    Мег: Монстр глубины / The Meg (2018) BDRip [1080p] ATV торрент скачать бесплатно

    Опубликовал: fregat | Дата: 8-11-2018, 05:00 | .torrent скачали: 0

    Мег: Монстр глубины / The Meg (2018) BDRip [1080p] ATVПроизводство : США, Китай
    Жанр : Ужасы, фантастика, боевик, триллер
    Продолжительность : 01: 53: 13
    Перевод : Дублированный(iTunes)
    Субтитры : Русские форсированные, Украинские форсированные, Русские, Английские
    Режиссер : Джон Тёртлтауб
    Актеры : Джейсон Стэйтем, Ли Бинбин, Рэйн Уилсон, Клифф Кёртис, Уинстон Чао, Шуя Софиа Цай, Руби Роуз, Пейдж Кеннеди, Роберт Тейлор, Оулавюр Дарри Оулафссон
    Мировая премьера : 8 августа 2018

    Описание : Глубоководный батискаф, осуществляющий наблюдение в рамках международной программы по изучению подводной жизни, был атакован огромным существом, которое все считали давно вымершим. Неисправный аппарат теперь лежит на дне глубочайшей впадины Тихого океана… с оказавшимся в ловушке экипажем. Их время на исходе. Китайский океанограф-новатор, несмотря на протесты его дочери Суинь, зовет спасателя-подводника Джонаса Тейлора, чтобы тот помог спасти команду и океан от невиданной угрозы — доисторической 23-метровой акулы, мегалодона. Никто и подумать не мог, что много лет назад Тейлор уже сталкивался с этим чудовищным созданием.
    Качество : BDRip 1080p
    Контейнер : M4V
    Видео : H.264, 1920x800, 2.40: 1, 8 000 Kbps, 23.976 (24000/1001) fps
    Аудио 1 : Русский/Дублированный (iTunes), AAC LC/2.0/160 Kbps/48.0 KHz
    Аудио 2 : Английский/Оригинальная дорожка , AAC LC/2.0/160 Kbps/48.0 KHz
    Аудио 3 : Украинский/Дублированный (iTunes), AAC LC/2.0/160 Kbps/48.0 KHz
    Аудио 4 : Русский/Дублированный (iTunes), AC-3/5.1/384 Kbps/48.0 KHz
    Аудио 5 : Английский/Оригинальная дорожка , AC-3/5.1/640 Kbps/48.0 KHz
    Код: выделить все

    Sort Name: The Meg
    XID: Apple:vendor_id:2018-918627
    contentID: 1417714264
    Copyright: © 2018 Warner Bros. Entertainment Inc. All Rights Reserved.
    Screenwriters: Дин Георгарис, Джон Хобер, Эрих Хобер
    Producers: Кеннет Этчити, Белль Эйвери, Чэнь Цзе
    Director: Джон Тёртлтауб
    Cast: Джейсон Стэйтем, Бинбин Ли, Рэйн Уилсон, Клифф Кёртис, Уинстон Чао, Шуя Софиа Цай, Руби Роуз, Пейдж Кеннеди, Роберт Тейлор (II), Оулавюр Дарри Оулафссон, Джессика МакНэми, Маси Ока, Хунмэй Мэй, Витхая Пансрингарм, Роб Уильямс, Таванда Маниймо
    Studio: Warner Home Video
    Rating: 4
    Long Description: Глубоководный батискаф, осуществляющий наблюдение в рамках международной программы по изучению подводной жизни, был атакован огромным существом, которое все считали давно вымершим. Неисправный аппарат теперь лежит на дне глубочайшей впадины Тихого океана… с оказавшимся в ловушке экипажем. Их время на исходе. Китайский океанограф-новатор, несмотря на протесты его дочери Суинь, зовет спасателя-подводника Джонаса Тейлора, чтобы тот помог спасти команду и океан от невиданной угрозы — доисторической 23-метровой акулы, мегалодона. Никто и подумать не мог, что много лет назад Тейлор уже сталкивался с этим чудовищным созданием.
    Description: Глубоководный батискаф, осуществляющий наблюдение в рамках международной программы по изучению подводной жизни, был атакован огромным существом, которое все считали давно вымершим. Неисправный аппарат теперь лежит на дне глубочайшей впадины Тихого океана… с оказавшимся в ловушке экипажем.
    Release Date: 2018-08-10T07:00:00Z
    Genre: Action Adventure
    Artist: Jon Turteltaub
    Name: The Meg
    Код: выделить все

    General
    Complete name : /Users/imac/HandBrake/The Meg (1080p HD).m4v
    Format : MPEG-4
    Codec ID : M4V (M4V /M4A /mp42/isom)
    File size : 7.51 GiB
    Duration : 1h 53mn
    Overall bit rate mode : Variable
    Overall bit rate : 9 495 Kbps
    Movie name : The Meg
    Performer : Jon Turteltaub
    Director : Джон Тёртлтауб
    Actor : Джейсон Стэйтем/Бинбин Ли/Рэйн Уилсон/Клифф Кёртис/Уинстон Чао/Шуя Софиа Цай/Руби Роуз/Пейдж Кеннеди/Роберт Тейлор (II)/Оулавюр Дарри Оулафссон/Джессика МакНэми/Маси Ока/Хунмэй Мэй/Витхая Пансрингарм/Роб Уильямс/Таванда Маниймо
    Screenplay by : Дин Георгарис/Джон Хобер/Эрих Хобер
    Producer : Кеннет Этчити/Белль Эйвери/Чэнь Цзе
    Production studio : Warner Home Video
    Genre : Action Adventure
    ContentType : Short Film
    Description : Глубоководный батискаф, осуществляющий наблюдение в рамках международной программы по изучению подводной жизни, был атакован огромным существом, которое все считали давно вымершим. Неисправный аппарат теперь лежит на дне глубочайшей впадины Тихого океана… с оказавшимся в ловушке экипажем.
    Recorded date : UTC 2018-08-10 07:00:00
    Encoded date : UTC 2018-11-07 10:18:40
    Tagged date : UTC 2018-11-07 10:22:06
    Copyright : © 2018 Warner Bros. Entertainment Inc. All Rights Reserved.
    Cover : Yes
    Rating : None
    Title/Sort : The Meg
    LongDescription : Глубоководный батискаф, осуществляющий наблюдение в рамках международной программы по изучению подводной жизни, был атакован огромным существом, которое все считали давно вымершим. Неисправный аппарат теперь лежит на дне глубочайшей впадины Тихого океана… с оказавшимся в ловушке экипажем. Их время на исходе. Китайский океанограф-новатор, несмотря на протесты его дочери Суинь, зовет спасателя-подводника Джонаса Тейлора, чтобы тот помог спасти команду и океан от невиданной угрозы — доисторической 23-метровой акулы, мегалодона. Никто и подумать не мог, что много лет назад Тейлор уже сталкивался с этим чудовищным созданием.
    AppleStoreCatalogID : 1417714264
    Vendor : Apple:vendor_id:2018-918627
    ContentRating : mpaa|PG-13|300|
    Video #1
    ID : 1
    Format : AVC
    Format/Info : Advanced Video Codec
    Format profile : High@L4
    Format settings : CABAC/4 Ref Frames
    Format settings, CABAC : Yes
    Format settings, ReFrames : 4 frames
    Codec ID : avc1
    Codec ID/Info : Advanced Video Coding
    Duration : 1h 53mn
    Source duration : 1h 53mn
    Bit rate : 8 000 Kbps
    Width : 1 920 pixels
    Height : 800 pixels
    Display aspect ratio : 2.40:1
    Frame rate mode : Variable
    Frame rate : 23.976 (24000/1001) fps
    Minimum frame rate : 23.974 fps
    Maximum frame rate : 23.981 fps
    Color space : YUV
    Chroma subsampling : 4:2:0
    Bit depth : 8 bits
    Scan type : Progressive
    Bits/(Pixel*Frame) : 0.217
    Stream size : 6.32 GiB (84%)
    Source stream size : 6.32 GiB (84%)
    Title : Main Program
    Writing library : x264 core 155 r2901 7d0ff22
    Encoding settings : cabac=1/ref=4/deblock=1:-2:-2/analyse=0x3:0x133/me=umh/subme=10/psy=1/psy_rd=1.00:0.15/mixed_ref=1/me_range=32/chroma_me=1/trellis=2/8x8dct=1/cqm=0/deadzone=21, 11/fast_pskip=1/chroma_qp_offset=-3/threads=25/lookahead_threads=6/sliced_threads=0/nr=0/decimate=0/interlaced=0/bluray_compat=0/constrained_intra=0/bframes=16/b_pyramid=2/b_adapt=2/b_bias=0/direct=3/weightb=1/open_gop=0/weightp=2/keyint=240/keyint_min=24/scenecut=40/intra_refresh=0/rc_lookahead=40/rc=2pass/mbtree=1/bitrate=8000/ratetol=1.0/qcomp=0.70/qpmin=0/qpmax=69/qpstep=4/cplxblur=20.0/qblur=0.5/ip_ratio=1.40/aq=1:1.00
    Language : English
    Encoded date : UTC 2018-11-07 10:18:40
    Tagged date : UTC 2018-11-07 10:18:59
    Color range : Limited
    Color primaries : BT.709
    Transfer characteristics : BT.709
    Matrix coefficients : BT.709
    Menus : 11, 12
    Codec configuration box : avcC
    Video #2
    ID : 12
    Format : JPEG
    Codec ID : jpeg
    Duration : 1h 53mn
    Bit rate mode : Variable
    Bit rate : 216 bps
    Width : 640 pixels
    Height : 266 pixels
    Display aspect ratio : 2.40:1
    Frame rate mode : Constant
    Frame rate : 0.001 fps
    Color space : YUV
    Chroma subsampling : 4:2:0
    Bit depth : 8 bits
    Compression mode : Lossy
    Bits/(Pixel*Frame) : 1.269
    Stream size : 290 KiB (0%)
    Title : Chapter Images
    Language : English
    Default : No
    Encoded date : UTC 2018-11-07 10:19:09
    Tagged date : UTC 2018-11-07 10:19:09
    Menu For : 1
    ColorSpace_ICC : RGB
    Audio #1
    ID : 2
    Format : AAC LC
    Format/Info : Advanced Audio Codec Low Complexity
    Codec ID : mp4a-40-2
    Duration : 1h 53mn
    Source duration : 1h 53mn
    Bit rate mode : Variable
    Bit rate : 156 Kbps
    Maximum bit rate : 246 Kbps
    Channel(s) : 2 channels
    Channel layout : L R
    Sampling rate : 48.0 KHz
    Frame rate : 46.875 fps (1024 SPF)
    Compression mode : Lossy
    Stream size : 127 MiB (2%)
    Source stream size : 127 MiB (2%)
    Title : Russian Stereo
    Language : Russian
    Default : Yes
    Alternate group : 1
    Encoded date : UTC 2018-11-07 10:18:40
    Tagged date : UTC 2018-11-07 10:19:04
    Fallback From : 5
    Subtitles : 7, 9
    Menus : 11
    Audio #2
    ID : 3
    Format : AAC LC
    Format/Info : Advanced Audio Codec Low Complexity
    Codec ID : mp4a-40-2
    Duration : 1h 53mn
    Source duration : 1h 53mn
    Bit rate mode : Variable
    Bit rate : 156 Kbps
    Maximum bit rate : 254 Kbps
    Channel(s) : 2 channels
    Channel layout : L R
    Sampling rate : 48.0 KHz
    Frame rate : 46.875 fps (1024 SPF)
    Compression mode : Lossy
    Stream size : 126 MiB (2%)
    Source stream size : 126 MiB (2%)
    Title : English Stereo
    Language : English
    Default : No
    Alternate group : 1
    Encoded date : UTC 2018-11-07 10:18:40
    Tagged date : UTC 2018-11-07 10:19:04
    Fallback From : 6
    Audio #3
    ID : 4
    Format : AAC LC
    Format/Info : Advanced Audio Codec Low Complexity
    Codec ID : mp4a-40-2
    Duration : 1h 53mn
    Source duration : 1h 53mn
    Bit rate mode : Variable
    Bit rate : 156 Kbps
    Maximum bit rate : 249 Kbps
    Channel(s) : 2 channels
    Channel layout : L R
    Sampling rate : 48.0 KHz
    Frame rate : 46.875 fps (1024 SPF)
    Compression mode : Lossy
    Stream size : 127 MiB (2%)
    Source stream size : 127 MiB (2%)
    Title : Ukrainian Stereo
    Language : Ukrainian
    Default : No
    Alternate group : 1
    Encoded date : UTC 2018-11-07 10:18:40
    Tagged date : UTC 2018-11-07 10:19:04
    Subtitles : 8
    Audio #4
    ID : 5
    Format : AC-3
    Format/Info : Audio Coding 3
    Commercial name : Dolby Digital
    Codec ID : ac-3
    Duration : 1h 53mn
    Bit rate mode : Constant
    Bit rate : 384 Kbps
    Channel(s) : 6 channels
    Channel layout : L R C LFE Ls Rs
    Sampling rate : 48.0 KHz
    Frame rate : 31.250 fps (1536 SPF)
    Bit depth : 16 bits
    Compression mode : Lossy
    Stream size : 311 MiB (4%)
    Title : Russian DD 5.1
    Language : Russian
    Service kind : Complete Main
    Default : Inherited From: 2
    Alternate group : 1
    Encoded date : UTC 2018-11-07 10:18:40
    Tagged date : UTC 2018-11-07 10:18:51
    Fallback To : 2
    Subtitles : 7, 9
    Audio #5
    ID : 6
    Format : AC-3
    Format/Info : Audio Coding 3
    Commercial name : Dolby Digital
    Codec ID : ac-3
    Duration : 1h 53mn
    Bit rate mode : Constant
    Bit rate : 640 Kbps
    Channel(s) : 6 channels
    Channel layout : L R C LFE Ls Rs
    Sampling rate : 48.0 KHz
    Frame rate : 31.250 fps (1536 SPF)
    Bit depth : 16 bits
    Compression mode : Lossy
    Stream size : 518 MiB (7%)
    Title : English DD 5.1
    Language : English
    Service kind : Complete Main
    Default : No
    Alternate group : 1
    Encoded date : UTC 2018-11-07 10:18:40
    Tagged date : UTC 2018-11-07 10:18:51
    Fallback To : 3
    Text #1
    ID : 7
    Format : Timed Text
    Muxing mode : sbtl
    Codec ID : tx3g
    Duration : 1h 42mn
    Bit rate mode : Variable
    Bit rate : 6 bps
    Stream size : 4.16 KiB (0%)
    Title : Russian forced
    Language : Russian
    Default : Yes
    Forced : Yes
    Alternate group : 2
    Encoded date : UTC 2018-11-07 10:18:40
    Tagged date : UTC 2018-11-07 10:18:40
    Subtitles For : 2, 5
    Full Alternative : 9
    Text #2
    ID : 8
    Format : Timed Text
    Muxing mode : sbtl
    Codec ID : tx3g
    Duration : 1h 53mn
    Bit rate mode : Variable
    Bit rate : 6 bps
    Stream size : 4.60 KiB (0%)
    Title : Ukrainian forced
    Language : Ukrainian
    Default : No
    Forced : Yes
    Alternate group : 2
    Encoded date : UTC 2018-11-07 10:18:40
    Tagged date : UTC 2018-11-07 10:18:40
    Subtitles For : 4
    Text #3
    ID : 9
    Format : Timed Text
    Muxing mode : sbtl
    Codec ID : tx3g
    Duration : 1h 53mn
    Bit rate mode : Variable
    Bit rate : 86 bps
    Stream size : 71.2 KiB (0%)
    Title : Russian full
    Language : Russian
    Default : No
    Forced : No
    Alternate group : 2
    Encoded date : UTC 2018-11-07 10:18:40
    Tagged date : UTC 2018-11-07 10:18:41
    Subtitles For : 2, 5
    Forced Alternative : 7
    Text #4
    ID : 10
    Format : Timed Text
    Muxing mode : sbtl
    Codec ID : tx3g
    Duration : 1h 42mn
    Bit rate mode : Variable
    Bit rate : 62 bps
    Stream size : 46.5 KiB (0%)
    Title : English full
    Language : English
    Default : No
    Forced : No
    Alternate group : 2
    Encoded date : UTC 2018-11-07 10:18:40
    Tagged date : UTC 2018-11-07 10:18:41
    Menu #1
    00:00:00.000 : Chapter 1
    00:08:48.653 : Chapter 2
    00:18:13.968 : Chapter 3
    00:27:09.962 : Chapter 4
    00:39:30.159 : Chapter 5
    00:49:10.948 : Chapter 6
    00:58:00.852 : Chapter 7
    01:08:22.724 : Chapter 8
    01:19:45.489 : Chapter 9
    01:30:03.440 : Chapter 10
    01:42:40.446 : Chapter 11
    Menu #2
    ID : 11
    Codec ID : text
    Duration : 1h 53mn
    Language : English
    Encoded date : UTC 2018-11-07 10:19:04
    Tagged date : UTC 2018-11-07 10:19:04
    Menu For : 2, 1
    00:00:00.000 : Chapter 1
    00:08:48.653 : Chapter 2
    00:18:13.968 : Chapter 3
    00:27:09.962 : Chapter 4
    00:39:30.159 : Chapter 5
    00:49:10.948 : Chapter 6
    00:58:00.852 : Chapter 7
    01:08:22.724 : Chapter 8
    01:19:45.489 : Chapter 9
    01:30:03.440 : Chapter 10
    01:42:40.446 : Chapter 11
    Bit rate mode : VBR
    Код: выделить все

    x264 [info]: frame I:1154 Avg QP:18.00 size:201728
    x264 [info]: frame P:42284 Avg QP:21.08 size: 60780
    x264 [info]: frame B:119446 Avg QP:21.90 size: 33350
    x264 [info]: consecutive B-frames: 3.9% 6.0% 14.2% 24.8% 15.3% 32.5% 2.1% 0.3% 0.3% 0.2% 0.1% 0.1% 0.1% 0.1% 0.0% 0.0% 0.1%
    x264 [info]: mb I I16..4: 22.1% 64.4% 13.5%
    x264 [info]: mb P I16..4: 2.9% 20.5% 1.6% P16..4: 43.3% 14.0% 7.8% 0.2% 0.0% skip: 9.7%
    x264 [info]: mb B I16..4: 0.5% 3.3% 0.3% B16..8: 45.8% 10.4% 2.1% direct: 8.2% skip:29.3% L0:46.4% L1:43.6% BI:10.1%
    x264 [info]: 8x8 transform intra:80.5% inter:70.8%
    x264 [info]: direct mvs spatial:95.9% temporal:4.1%
    x264 [info]: coded y, uvDC, uvAC intra: 91.3% 72.6% 34.5% inter: 35.0% 26.9% 5.2%
    x264 [info]: i16 v, h, dc, p: 11% 14% 25% 51%
    x264 [info]: i8 v, h, dc, ddl, ddr, vr, hd, vl, hu: 6% 11% 6% 10% 14% 12% 15% 11% 14%
    x264 [info]: i4 v, h, dc, ddl, ddr, vr, hd, vl, hu: 6% 11% 4% 9% 15% 12% 17% 10% 16%
    x264 [info]: i8c dc, h, v, p: 38% 31% 18% 13%
    x264 [info]: Weighted P-Frames: Y:2.7% UV:1.2%
    x264 [info]: ref P L0: 54.2% 11.8% 22.8% 10.4% 0.9% 0.0%
    x264 [info]: ref B L0: 83.8% 13.6% 2.6%
    x264 [info]: ref B L1: 94.1% 5.9%
    x264 [info]: kb/s:7991.46
    Скриншоты :


    Все одноименные релизы в Клубе


    Релиз подготовлен для просмотра наApple TV, iPad, iPhone, iPod Touch.
    Для просмотра данного релиза на компьютере с ОС Windows рекомендуется использоватьVLC media player


    Мег: Монстр глубины/The Meg (2018) BDRip [1080p] ATV
    Рейтинг →
     (голосов: 1, оценка 3/5, голосовать можно 1 раз )

    Другие торренты по теме:

  • Мег: Монстр глубины / The Meg (2018) CamRip [AD]
  • Мег: Монстр глубины / The Meg (2018) WEBRip [H.264 / 1080p-LQ] [EN / KOR Sub]
  • Мег: Монстр глубины / The Meg (2018) WEBRip [H.264 / 1080p-LQ] [MVO, AD]
  • Мег: Монстр глубины / The Meg (2018) WEBRip [Звук с TS] [AD]
  • Мег: Монстр глубины / The Meg (2018) WEBRip [H.264 / 720p-LQ] [Звук с TS] [AD]
  • Мег: Монстр глубины / The Meg (2018) WEBRip [MVO]
  • Мег: Монстр глубины / The Meg (2018) WEBRip [H.264 / 1080p-LQ] [MVO]
  • Мег: Монстр глубины / The Meg (2018) WEBRip [H.264 / 720p-LQ] [MVO]


    • Комментарии (0):

      Информация

      Информация

        Посетители, находящиеся в группе Гости, не могут оставлять комментарии в данной новости.

        ↓ Меню




        ↓ Опрос

        Вы добавили сайт в закладки?
        Да
        Нет


        Top 10 за месяц (Программы)