.
Авторизация | Регистрация
Хочешь лучшие торренты? Добавь свой email!
Добавить

Торрент скачать бесплатно

  • support: webmaster@btracker.club
» » Мег: Монстр глубины / The Meg (2018) WEB-DL [720p] ATV торрент скачать бесплатно


    Мег: Монстр глубины / The Meg (2018) WEB-DL [720p] ATV торрент скачать бесплатно

    Опубликовал: fregat | Дата: 1-11-2018, 05:00 | .torrent скачали: 0

    Мег: Монстр глубины / The Meg (2018) WEB-DL [720p] ATVПроизводство : США, Китай
    Жанр : Ужасы, фантастика, боевик, триллер
    Продолжительность : 01: 53: 11
    Перевод : Дублированный(iTunes)
    Субтитры : Русские форсированные, Украинские форсированные, Русские
    Режиссер : Джон Тёртлтауб
    Актеры : Джейсон Стэйтем, Ли Бинбин, Рэйн Уилсон, Клифф Кёртис, Уинстон Чао, Шуя Софиа Цай, Руби Роуз, Пейдж Кеннеди, Роберт Тейлор, Оулавюр Дарри Оулафссон
    Мировая премьера : 8 августа 2018

    Описание : Глубоководный батискаф, осуществляющий наблюдение в рамках международной программы по изучению подводной жизни, был атакован огромным существом, которое все считали давно вымершим. Неисправный аппарат теперь лежит на дне глубочайшей впадины Тихого океана… с оказавшимся в ловушке экипажем. Их время на исходе. Китайский океанограф-новатор, несмотря на протесты его дочери Суинь, зовет спасателя-подводника Джонаса Тейлора, чтобы тот помог спасти команду и океан от невиданной угрозы — доисторической 23-метровой акулы, мегалодона. Никто и подумать не мог, что много лет назад Тейлор уже сталкивался с этим чудовищным созданием.
    Качество : WEB-DL 720p
    Контейнер : M4V
    Видео : H.264, 1280x532, 2.40: 1, 4 039 Kbps, 23.976 fps
    Аудио 1 : Русский/Дублированный (iTunes), AAC/2.0/160 Kbps/48.0 KHz
    Аудио 2 : Английский/Оригинальная дорожка , AAC/2.0/160 Kbps/48.0 KHz
    Аудио 3 : Украинский/Дублированный (iTunes), AAC/2.0/160 Kbps/48.0 KHz
    Аудио 4 : Русский/Дублированный (iTunes), AC-3/5.1/384 Kbps/48.0 KHz
    Аудио 5 : Английский/Оригинальная дорожка , AC-3/5.1/384 Kbps/48.0 KHz
    Код: выделить все

    Sort Name: The Meg
    XID: Apple:vendor_id:2018-918627
    contentID: 1417714264
    Copyright: © 2018 Warner Bros. Entertainment Inc. All Rights Reserved.
    Screenwriters: Дин Георгарис, Джон Хобер, Эрих Хобер
    Producers: Кеннет Этчити, Белль Эйвери, Чэнь Цзе
    Director: Джон Тёртлтауб
    Cast: Джейсон Стэйтем, Бинбин Ли, Рэйн Уилсон, Клифф Кёртис, Уинстон Чао, Шуя Софиа Цай, Руби Роуз, Пейдж Кеннеди, Роберт Тейлор (II), Оулавюр Дарри Оулафссон, Джессика МакНэми, Маси Ока, Хунмэй Мэй, Витхая Пансрингарм, Роб Уильямс, Таванда Маниймо
    Studio: Warner Home Video
    Rating: 4
    Long Description: Глубоководный батискаф, осуществляющий наблюдение в рамках международной программы по изучению подводной жизни, был атакован огромным существом, которое все считали давно вымершим. Неисправный аппарат теперь лежит на дне глубочайшей впадины Тихого океана… с оказавшимся в ловушке экипажем. Их время на исходе. Китайский океанограф-новатор, несмотря на протесты его дочери Суинь, зовет спасателя-подводника Джонаса Тейлора, чтобы тот помог спасти команду и океан от невиданной угрозы — доисторической 23-метровой акулы, мегалодона. Никто и подумать не мог, что много лет назад Тейлор уже сталкивался с этим чудовищным созданием.
    Description: Глубоководный батискаф, осуществляющий наблюдение в рамках международной программы по изучению подводной жизни, был атакован огромным существом, которое все считали давно вымершим. Неисправный аппарат теперь лежит на дне глубочайшей впадины Тихого океана… с оказавшимся в ловушке экипажем.
    Release Date: 2018-08-10T07:00:00Z
    Genre: Action Adventure
    Artist: Jon Turteltaub
    Name: The Meg
    Код: выделить все

    General
    Complete name : /Users/imac/HandBrake/The.Meg.WEB-DL.720p.m4v
    Format : MPEG-4
    Codec ID : M4V
    File size : 4.18 GiB
    Duration : 1h 53mn
    Overall bit rate mode : Variable
    Overall bit rate : 5 285 Kbps
    Movie name : The Meg
    Performer : Jon Turteltaub
    Director : Джон Тёртлтауб
    Actor : Джейсон Стэйтем/Бинбин Ли/Рэйн Уилсон/Клифф Кёртис/Уинстон Чао/Шуя Софиа Цай/Руби Роуз/Пейдж Кеннеди/Роберт Тейлор (II)/Оулавюр Дарри Оулафссон/Джессика МакНэми/Маси Ока/Хунмэй Мэй/Витхая Пансрингарм/Роб Уильямс/Таванда Маниймо
    Screenplay by : Дин Георгарис/Джон Хобер/Эрих Хобер
    Producer : Кеннет Этчити/Белль Эйвери/Чэнь Цзе
    Production studio : Warner Home Video
    Genre : Action Adventure
    ContentType : Short Film
    Description : Глубоководный батискаф, осуществляющий наблюдение в рамках международной программы по изучению подводной жизни, был атакован огромным существом, которое все считали давно вымершим. Неисправный аппарат теперь лежит на дне глубочайшей впадины Тихого океана… с оказавшимся в ловушке экипажем.
    Recorded date : UTC 2018-08-10 07:00:00
    Encoded date : UTC 2018-10-31 00:19:28
    Tagged date : UTC 2018-10-31 00:21:07
    Copyright : © 2018 Warner Bros. Entertainment Inc. All Rights Reserved.
    Cover : Yes
    Rating : None
    Title/Sort : The Meg
    LongDescription : Глубоководный батискаф, осуществляющий наблюдение в рамках международной программы по изучению подводной жизни, был атакован огромным существом, которое все считали давно вымершим. Неисправный аппарат теперь лежит на дне глубочайшей впадины Тихого океана… с оказавшимся в ловушке экипажем. Их время на исходе. Китайский океанограф-новатор, несмотря на протесты его дочери Суинь, зовет спасателя-подводника Джонаса Тейлора, чтобы тот помог спасти команду и океан от невиданной угрозы — доисторической 23-метровой акулы, мегалодона. Никто и подумать не мог, что много лет назад Тейлор уже сталкивался с этим чудовищным созданием.
    HDVideo : Yes
    AppleStoreCatalogID : 1417714264
    Vendor : Apple:vendor_id:2018-918627
    ContentRating : mpaa|PG-13|300|
    Video #1
    ID : 1
    Format : AVC
    Format/Info : Advanced Video Codec
    Format profile :Main@L3.1
    Format settings, CABAC : No
    Format settings, ReFrames : 2 frames
    Codec ID : avc1
    Codec ID/Info : Advanced Video Coding
    Duration : 1h 53mn
    Bit rate : 4 039 Kbps
    Width : 1 280 pixels
    Height : 532 pixels
    Display aspect ratio : 2.40:1
    Frame rate mode : Variable
    Frame rate : 23.976 fps
    Minimum frame rate : 23.810 fps
    Maximum frame rate : 24.390 fps
    Color space : YUV
    Chroma subsampling : 4:2:0
    Bit depth : 8 bits
    Scan type : Progressive
    Bits/(Pixel*Frame) : 0.247
    Stream size : 3.19 GiB (76%)
    Title : Main Program
    Language : English
    Encoded date : UTC 2018-10-31 00:19:28
    Tagged date : UTC 2018-10-31 00:20:09
    Color range : Limited
    Color primaries : BT.709
    Transfer characteristics : BT.709
    Matrix coefficients : BT.709
    Video #2
    ID : 11
    Format : JPEG
    Codec ID : jpeg
    Duration : 1h 53mn
    Bit rate mode : Variable
    Bit rate : 261 bps
    Width : 640 pixels
    Height : 266 pixels
    Display aspect ratio : 2.40:1
    Frame rate mode : Constant
    Frame rate : 0.001 fps
    Color space : YUV
    Chroma subsampling : 4:2:0
    Bit depth : 8 bits
    Compression mode : Lossy
    Bits/(Pixel*Frame) : 1.533
    Stream size : 350 KiB (0%)
    Title : Chapter Images
    Language : English
    Encoded date : UTC 2018-10-31 00:20:12
    Tagged date : UTC 2018-10-31 00:20:12
    Audio #1
    ID : 2
    Format : AAC
    Format/Info : Advanced Audio Codec
    Format profile : LC
    Codec ID : 40
    Duration : 1h 53mn
    Source duration : 1h 53mn
    Bit rate mode : Variable
    Bit rate : 156 Kbps
    Maximum bit rate : 249 Kbps
    Channel(s) : 2 channels
    Channel positions : Front: L R
    Sampling rate : 48.0 KHz
    Compression mode : Lossy
    Stream size : 127 MiB (3%)
    Source stream size : 127 MiB (3%)
    Title : Russian Stereo
    Language : Russian
    Encoded date : UTC 2018-10-31 00:19:29
    Tagged date : UTC 2018-10-31 00:19:41
    Audio #2
    ID : 3
    Format : AAC
    Format/Info : Advanced Audio Codec
    Format profile : LC
    Codec ID : 40
    Duration : 1h 53mn
    Source duration : 1h 53mn
    Bit rate mode : Variable
    Bit rate : 155 Kbps
    Maximum bit rate : 239 Kbps
    Channel(s) : 2 channels
    Channel positions : Front: L R
    Sampling rate : 48.0 KHz
    Compression mode : Lossy
    Stream size : 125 MiB (3%)
    Source stream size : 125 MiB (3%)
    Title : English Stereo
    Language : English
    Encoded date : UTC 2018-10-31 00:19:29
    Tagged date : UTC 2018-10-31 00:19:41
    Audio #3
    ID : 4
    Format : AAC
    Format/Info : Advanced Audio Codec
    Format profile : LC
    Codec ID : 40
    Duration : 1h 53mn
    Source duration : 1h 53mn
    Bit rate mode : Variable
    Bit rate : 156 Kbps
    Maximum bit rate : 260 Kbps
    Channel(s) : 2 channels
    Channel positions : Front: L R
    Sampling rate : 48.0 KHz
    Compression mode : Lossy
    Stream size : 126 MiB (3%)
    Source stream size : 126 MiB (3%)
    Title : Ukrainian Stereo
    Language : Ukrainian
    Encoded date : UTC 2018-10-31 00:19:29
    Tagged date : UTC 2018-10-31 00:19:41
    Audio #4
    ID : 5
    Format : AC-3
    Format/Info : Audio Coding 3
    Mode extension : CM (complete main)
    Format settings, Endianness : Big
    Codec ID : ac-3
    Duration : 1h 53mn
    Bit rate mode : Constant
    Bit rate : 384 Kbps
    Channel(s) : 6 channels
    Channel positions : Front: L C R, Side: L R, LFE
    Sampling rate : 48.0 KHz
    Bit depth : 16 bits
    Compression mode : Lossy
    Stream size : 311 MiB (7%)
    Title : Russian DD 5.1
    Language : Russian
    Encoded date : UTC 2018-10-31 00:19:29
    Tagged date : UTC 2018-10-31 00:19:41
    Audio #5
    ID : 6
    Format : AC-3
    Format/Info : Audio Coding 3
    Mode extension : CM (complete main)
    Format settings, Endianness : Big
    Codec ID : ac-3
    Duration : 1h 53mn
    Bit rate mode : Constant
    Bit rate : 384 Kbps
    Channel(s) : 6 channels
    Channel positions : Front: L C R, Side: L R, LFE
    Sampling rate : 48.0 KHz
    Bit depth : 16 bits
    Compression mode : Lossy
    Stream size : 311 MiB (7%)
    Title : English DD 5.1
    Language : English
    Encoded date : UTC 2018-10-31 00:19:29
    Tagged date : UTC 2018-10-31 00:19:41
    Text #1
    ID : 7
    Format : Timed Text
    Muxing mode : sbtl
    Codec ID : tx3g
    Duration : 1h 42mn
    Bit rate mode : Variable
    Bit rate : 6 bps
    Stream size : 4.15 KiB (0%)
    Title : Russian forced
    Language : Russian
    Encoded date : UTC 2018-10-31 00:19:29
    Tagged date : UTC 2018-10-31 00:19:40
    Text #2
    ID : 8
    Format : Timed Text
    Muxing mode : sbtl
    Codec ID : tx3g
    Duration : 1h 53mn
    Bit rate mode : Variable
    Bit rate : 5 bps
    Stream size : 4.53 KiB (0%)
    Title : Ukrainian forced
    Language : Ukrainian
    Encoded date : UTC 2018-10-31 00:19:29
    Tagged date : UTC 2018-10-31 00:19:40
    Text #3
    ID : 9
    Format : Timed Text
    Muxing mode : sbtl
    Codec ID : tx3g
    Duration : 1h 53mn
    Bit rate mode : Variable
    Bit rate : 86 bps
    Stream size : 71.2 KiB (0%)
    Title : English full
    Language : Russian
    Encoded date : UTC 2018-10-31 00:19:29
    Tagged date : UTC 2018-10-31 00:19:40
    Menu #1
    00:00:00.000 : 1
    00:08:48.000 : 2
    00:18:14.000 : 3
    00:27:10.000 : 4
    00:39:31.000 : 5
    00:49:11.000 : 6
    00:58:01.000 : 7
    01:08:23.000 : 8
    01:19:46.000 : 9
    01:30:04.000 : 10
    01:42:43.000 : 11
    Menu #2
    ID : 10
    Codec ID : text
    Duration : 1h 53mn
    Language : English
    Encoded date : UTC 2018-10-31 00:20:09
    Tagged date : UTC 2018-10-31 00:20:09
    00:00:00.000 : 1
    00:08:48.000 : 2
    00:18:14.000 : 3
    00:27:10.000 : 4
    00:39:31.000 : 5
    00:49:11.000 : 6
    00:58:01.000 : 7
    01:08:23.000 : 8
    01:19:46.000 : 9
    01:30:04.000 : 10
    01:42:43.000 : 11
    Bit rate mode : VBR
    Скриншоты :


    Все одноименные релизы в Клубе


    Релиз подготовлен для просмотра наApple TV, iPad, iPhone, iPod Touch.
    Для просмотра данного релиза на компьютере с ОС Windows рекомендуется использоватьVLC media player


    Мег: Монстр глубины/The Meg (2018) WEB-DL [720p] ATV
    Рейтинг →
     (голосов: 1, оценка 5/5, голосовать можно 1 раз )

    Другие торренты по теме:

  • Мег: Монстр глубины / The Meg (2018) BDRip 3D [H.264 / 1080p] [вертикальная анаморфная стереопара]
  • Мег: Монстр глубины / The Meg (2018) CamRip [AD]
  • Мег: Монстр глубины / The Meg (2018) WEBRip [H.264 / 1080p-LQ] [EN / KOR Sub]
  • Мег: Монстр глубины / The Meg (2018) WEBRip [H.264 / 1080p-LQ] [MVO, AD]
  • Мег: Монстр глубины / The Meg (2018) WEBRip [Звук с TS] [AD]
  • Мег: Монстр глубины / The Meg (2018) WEBRip [H.264 / 720p-LQ] [Звук с TS] [AD]
  • Мег: Монстр глубины / The Meg (2018) WEBRip [MVO]
  • Мег: Монстр глубины / The Meg (2018) WEBRip [H.264 / 1080p-LQ] [MVO]


    • Комментарии (0):

      Информация

      Информация

        Посетители, находящиеся в группе Гости, не могут оставлять комментарии в данной новости.

        ↓ Меню




        ↓ Опрос

        Вы добавили сайт в закладки?
        Да
        Нет


        Top 10 за месяц (Программы)