.
Авторизация | Регистрация
Хочешь лучшие торренты? Добавь свой email!
Добавить

Торрент скачать бесплатно

  • support: webmaster@btracker.club
» » Великий уравнитель 2 / The Equalizer 2 (2018) WEB-DL [1080p] ATV торрент скачать бесплатно


    Великий уравнитель 2 / The Equalizer 2 (2018) WEB-DL [1080p] ATV торрент скачать бесплатно

    Опубликовал: fregat | Дата: 1-11-2018, 05:00 | .torrent скачали: 0

    Великий уравнитель 2 / The Equalizer 2 (2018) WEB-DL [1080p] ATVПроизводство: США/Columbia Pictures Corporation, Lonetree Entertainment, Mace Neufeld Productions, Sony Pictures Entertainment,
    Жанр: Боевик, Триллер, Криминал
    Режиссер: Антуан Фукуа
    Продюсер: Молли Аллен, Тодд Блэк, Дэвид Дж. Блумфилд
    Актеры: Дензел Вашингтон, Педро Паскаль, Билл Пуллман, Мелисса Лео, Джонатан Скарф, Сакина Джэффри, Кэролайн Дэй, Орсон Бин, Хайди Гарроу, Эштон Сандерс

    Описание

    Продолжение истории Роберта Маккола, бывшего агента ЦРУ, который самостоятельно вершит правосудие.

    Возраст: 18+ (зрителям, достигшим 18 лет. запрещено для детей)
    Рейтинг MPAA: R (лицам до 17 лет обязательно присутствие взрослого)
    Дата мировой премьеры: 19 июля 2018
    Дата российской премьеры: 6 сентября 2018, WDSSPR
    Продолжительность: 02: 01: 12
    Качество видео: WEB-DL 1080р
    Перевод: Дублированный (iTunes )
    Субтитры: Русские (Forced, full), украинские (Full), английские
    Видео : H.264, 1920x796 (2.40: 1), ~4518 kbps, 23.976 fps
    Аудио#1 : AAC, 2.0 ch, 196 Kbps - Русский DUB, iTunes
    Аудио#2 : AAC, 2.0 ch, 196 Kbps - English, Original
    Аудио#3 : AC3, 6.0 ch, 384 Kbps - Русский DUB, iTunes
    Аудио#4 : AC3, 6.0 ch, 384 Kbps - English, Original
    Код: выделить все

    Общее
    Полное имя : /Users/NNM-CLUB/The.Equalizer.2.2018.WEB-DL.1080p.m4v
    Формат : MPEG-4
    Идентификатор кодека : M4V (M4V /M4A /mp42/isom)
    Размер файла : 4, 81 Гбайт
    Продолжительность : 2 ч. 1 м.
    Режим общего битрейта : Переменный
    Общий поток : 5686 Кбит/сек
    Название фильма : Великий Уравнитель 2
    Исполнитель : Antoine Fuqua
    Режиссёр : Antoine Fuqua
    Исполнитель : Denzel Washington/Pedro Pascal/Ashton Sanders/Orson Bean/Bill Pullman/Melissa Leo/Jonathan Scarfe/Sakina Jaffrey
    Сценарист : Richard Wenk
    Продюсер : Denzel Washington/Antoine Fuqua/Todd Black/Jason Blumenthal/Alex Siskin/Steve Tisch/Mace Neufeld/Tony Eldridge/Michael Sloan
    Студия-производитель : Columbia Pictures
    Жанр : Боевики и приключения
    Тип содержимого : Short Film
    Дата записи : UTC 2018-09-06 07:00:00
    Дата кодирования : UTC 2018-10-30 20:58:10
    Дата пометки : UTC 2018-10-30 21:05:23
    Авторское право : © 2018 Columbia Pictures Industries, Inc.
    Обложка : Yes
    LongDescription : Дензел Вашингтон возвращается к одной из коронных ролей в первом продолжении фильма в его карьере. Роберт Макколл непоколебимо служит справедливости, помогает эксплуатируемым и угнетенным - но как далеко он зайдет, когда дело касается того, кого он любит?
    AppleStoreCountry : Russia
    AppleStoreCatalogID : 1406533645
    ContentRating : ru-movie|18+|400|
    Видео #1
    Идентификатор : 1
    Формат : AVC
    Формат/Информация : Advanced Video Codec
    Профиль формата : High@L4
    Настройки формата : CABAC/5 Ref Frames
    Параметр CABAC формата : Да
    Параметр ReFrames формата : 5 кадров
    Идентификатор кодека : avc1
    Идентификатор кодека/Информация : Advanced Video Coding
    Продолжительность : 2 ч. 1 м.
    Битрейт : 4518 Кбит/сек
    Ширина : 1920 пикселей
    Высота : 796 пикселей
    Соотношение сторон : 2, 40:1
    Режим частоты кадров : Переменный
    Частота кадров : 23, 976 кадра/сек
    Минимальная частота кадров : 22, 727 кадра/сек
    Максимальная частота кадров : 500, 000 кадров/сек
    Цветовое пространство : YUV
    Субдискретизация насыщенности : 4:2:0
    Битовая глубина : 8 бит
    Тип развёртки : Прогрессивная
    Бит/(Пиксели*Кадры) : 0.123
    Размер потока : 3, 82 Гбайт (79%)
    Язык : English
    Дата кодирования : UTC 2018-10-30 20:58:10
    Дата пометки : UTC 2018-10-30 21:05:14
    Цветовой диапазон : Limited
    Основные цвета : BT.709
    Характеристики трансфера : BT.709
    Коэффициенты матрицы : BT.709
    Menus : 11, 12
    Codec configuration box : avcC
    Видео #2
    Идентификатор : 12
    Формат : JPEG
    Идентификатор кодека : jpeg
    Продолжительность : 2 ч. 1 м.
    Вид битрейта : Переменный
    Битрейт : 531 бит/сек
    Ширина : 640 пикселей
    Высота : 265 пикселей
    Соотношение сторон : 2, 40:1
    Режим частоты кадров : Переменный
    Частота кадров : 0, 002 кадр/сек
    Минимальная частота кадров : 0, 001 кадр/сек
    Максимальная частота кадров : 0, 005 кадр/сек
    Цветовое пространство : YUV
    Субдискретизация насыщенности : 4:2:0
    Битовая глубина : 8 бит
    Метод сжатия : С потерями
    Бит/(Пиксели*Кадры) : 1.565
    Размер потока : 518 Кбайт (0%)
    Язык : English
    Default : Нет
    Дата кодирования : UTC 2018-10-30 21:05:22
    Дата пометки : UTC 2018-10-30 21:05:23
    Menu For : 1
    ColorSpace_ICC : RGB
    Аудио #1
    Идентификатор : 2
    Формат : AAC LC
    Формат/Информация : Advanced Audio Codec Low Complexity
    Идентификатор кодека : mp4a-40-2
    Продолжительность : 2 ч. 0 м.
    Вид битрейта : Переменный
    Битрейт : 196 Кбит/сек
    Максимальный битрейт : 329 Кбит/сек
    Каналы : 2 канала
    Channel layout : L R
    Частота : 48, 0 КГц
    Частота кадров : 46, 875 кадров/сек (1024 SPF)
    Метод сжатия : С потерями
    Размер потока : 170 Мбайт (3%)
    Язык : Russian
    Default : Да
    Alternate group : 1
    Дата кодирования : UTC 2018-10-30 20:58:10
    Дата пометки : UTC 2018-10-30 21:05:14
    Fallback From : 4
    tagc : public.main-program-content
    Аудио #2
    Идентификатор : 3
    Формат : AAC LC
    Формат/Информация : Advanced Audio Codec Low Complexity
    Идентификатор кодека : mp4a-40-2
    Продолжительность : 2 ч. 0 м.
    Вид битрейта : Переменный
    Битрейт : 196 Кбит/сек
    Максимальный битрейт : 325 Кбит/сек
    Каналы : 2 канала
    Channel layout : L R
    Частота : 48, 0 КГц
    Частота кадров : 46, 875 кадров/сек (1024 SPF)
    Метод сжатия : С потерями
    Размер потока : 170 Мбайт (3%)
    Язык : English
    Default : Нет
    Alternate group : 1
    Дата кодирования : UTC 2018-10-30 20:58:10
    Дата пометки : UTC 2018-10-30 21:05:14
    Fallback From : 5
    tagc : public.main-program-content
    Аудио #3
    Идентификатор : 4
    Формат : AC-3
    Формат/Информация : Audio Coding 3
    Коммерческое название : Dolby Digital
    Идентификатор кодека : ac-3
    Продолжительность : 2 ч. 0 м.
    Вид битрейта : Постоянный
    Битрейт : 384 Кбит/сек
    Каналы : 6 каналов
    Channel layout : L R C LFE Ls Rs
    Частота : 48, 0 КГц
    Частота кадров : 31, 250 кадров/сек (1536 SPF)
    Битовая глубина : 16 бит
    Метод сжатия : С потерями
    Размер потока : 332 Мбайт (7%)
    Язык : Russian
    Service kind : Complete Main
    Default : Inherited From: 2
    Alternate group : 1
    Дата кодирования : UTC 2018-10-30 20:58:10
    Дата пометки : UTC 2018-10-30 21:05:14
    Fallback To : 2
    tagc : public.main-program-content
    Аудио #4
    Идентификатор : 5
    Формат : AC-3
    Формат/Информация : Audio Coding 3
    Коммерческое название : Dolby Digital
    Идентификатор кодека : ac-3
    Продолжительность : 2 ч. 0 м.
    Вид битрейта : Постоянный
    Битрейт : 384 Кбит/сек
    Каналы : 6 каналов
    Channel layout : L R C LFE Ls Rs
    Частота : 48, 0 КГц
    Частота кадров : 31, 250 кадров/сек (1536 SPF)
    Битовая глубина : 16 бит
    Метод сжатия : С потерями
    Размер потока : 332 Мбайт (7%)
    Язык : English
    Service kind : Complete Main
    Default : Нет
    Alternate group : 1
    Дата кодирования : UTC 2018-10-30 20:58:10
    Дата пометки : UTC 2018-10-30 21:05:14
    Fallback To : 3
    tagc : public.main-program-content
    Текст #1
    Идентификатор : 6
    Формат : Timed Text
    Режим смешивания : sbtl
    Идентификатор кодека : tx3g
    Продолжительность : 2 ч. 0 м.
    Вид битрейта : Переменный
    Битрейт : 2 бит/сек
    Размер потока : 1, 75 Кбайт (0%)
    Язык : Russian
    Default : Да
    Forced : Нет
    Alternate group : 2
    Дата кодирования : UTC 2018-10-30 20:58:10
    Дата пометки : UTC 2018-10-30 21:05:14
    tagc : public.subtitles.forced-only
    Текст #2
    Идентификатор : 7
    Формат : Timed Text
    Режим смешивания : sbtl
    Идентификатор кодека : tx3g
    Продолжительность : 2 ч. 0 м.
    Вид битрейта : Переменный
    Битрейт : 63 бит/сек
    Размер потока : 55, 5 Кбайт (0%)
    Язык : Russian
    Default : Нет
    Forced : Нет
    Alternate group : 2
    Дата кодирования : UTC 2018-10-30 20:58:10
    Дата пометки : UTC 2018-10-30 21:05:14
    tagc : public.main-program-content
    Текст #3
    Идентификатор : 8
    Формат : Timed Text
    Режим смешивания : sbtl
    Идентификатор кодека : tx3g
    Продолжительность : 2 ч. 0 м.
    Вид битрейта : Переменный
    Битрейт : 61 бит/сек
    Размер потока : 53, 9 Кбайт (0%)
    Язык : Ukrainian
    Default : Нет
    Forced : Нет
    Alternate group : 2
    Дата кодирования : UTC 2018-10-30 20:58:10
    Дата пометки : UTC 2018-10-30 21:05:14
    tagc : public.main-program-content
    Текст #4
    Идентификатор : 9
    Формат : Timed Text
    Режим смешивания : sbtl
    Идентификатор кодека : tx3g
    Продолжительность : 47 м. 42 с.
    Вид битрейта : Переменный
    Битрейт : 1 бит/сек
    Размер потока : 236 байт (0%)
    Язык : English
    Default : Нет
    Forced : Нет
    Alternate group : 2
    Дата кодирования : UTC 2018-10-30 20:58:10
    Дата пометки : UTC 2018-10-30 21:05:14
    tagc : public.subtitles.forced-only
    Текст #5
    Идентификатор : 10
    Формат : Timed Text
    Режим смешивания : sbtl
    Идентификатор кодека : tx3g
    Продолжительность : 1 ч. 54 м.
    Вид битрейта : Переменный
    Битрейт : 42 бит/сек
    Размер потока : 35, 0 Кбайт (0%)
    Язык : English
    Default : Нет
    Forced : Нет
    Alternate group : 2
    Дата кодирования : UTC 2018-10-30 20:58:10
    Дата пометки : UTC 2018-10-30 21:05:14
    tagc : public.main-program-content
    Меню
    Идентификатор : 11
    Идентификатор кодека : text
    Продолжительность : 2 ч. 1 м.
    Язык : English
    Дата кодирования : UTC 2018-10-30 21:05:14
    Дата пометки : UTC 2018-10-30 21:05:14
    Menu For : 1
    00:00:00.000 : 1
    00:06:49.034 : 2
    00:13:21.634 : 3
    00:16:42.459 : 4
    00:27:09.919 : 5
    00:34:04.458 : 6
    00:41:04.543 : 7
    00:47:07.613 : 8
    00:54:16.333 : 9
    01:02:16.813 : 10
    01:11:17.727 : 11
    01:18:38.125 : 12
    01:25:18.942 : 13
    01:31:39.238 : 14
    01:40:09.330 : 15
    01:52:13.720 : 16
    Вид битрейта : VBR



    Великий уравнитель 2/The Equalizer 2 (2018) WEB-DL [1080p] ATV
    Рейтинг →
     (голосов: 1, оценка 3/5, голосовать можно 1 раз )

    Другие торренты по теме:

  • Великий уравнитель 2 / The Equalizer 2 (2018) UHD BDRemux [H.265 / 2160p] [4K, HDR, 10-bit]
  • Великий уравнитель / The Equalizer (2014) WEBRip [1080p] [Трейлер]
  • Великий уравнитель / The Equalizer (2014) WEBRip [H.264 / 720p-LQ] [Трейлер]
  • Великий уравнитель / The Equalizer (2014) CamRip скачать через торрент бесплатно
  • Великий уравнитель / The Equalizer (2014) CamRip скачать через торрент бесплатно
  • Великий уравнитель / The Equalizer (2014) HDRip [звук с TS] скачать через торрент бесплатно
  • Великий уравнитель / The Equalizer (2014) HDRip [Line]
  • Великий уравнитель / The Equalizer (2014) HDRip [Line]


    • Комментарии (0):

      Информация

      Информация

        Посетители, находящиеся в группе Гости, не могут оставлять комментарии в данной новости.

        ↓ Меню




        ↓ Опрос

        Вы добавили сайт в закладки?
        Да
        Нет


        Top 10 за месяц (Программы)