.
Авторизация | Регистрация
Хочешь лучшие торренты? Добавь свой email!
Добавить

Торрент скачать бесплатно

  • support: webmaster@btracker.club
» » Великий уравнитель 2 / The Equalizer 2 (2018) WEB-DL [720p] ATV торрент скачать бесплатно


    Великий уравнитель 2 / The Equalizer 2 (2018) WEB-DL [720p] ATV торрент скачать бесплатно

    Опубликовал: fregat | Дата: 1-11-2018, 05:00 | .torrent скачали: 0

    Великий уравнитель 2 / The Equalizer 2 (2018) WEB-DL [720p] ATVПроизводство : США
    Жанр : Боевик, триллер, криминал
    Продолжительность : 02: 01: 12
    Перевод : Дублированный(iTunes)
    Субтитры : Русские форсированные, Русские, Английские, Украинские
    Режиссер : Антуан Фукуа
    Актеры : Дензел Вашингтон, Педро Паскаль, Эштон Сандерс, Орсон Бин, Билл Пуллман, Мелисса Лео, Джонатан Скарф, Сакина Джэффри, Кази Таугинас, Гарретт Голден
    Мировая премьера : 19 июля 2018

    Описание : Продолжение истории Роберта Маккола, бывшего агента ЦРУ, который самостоятельно вершит правосудие.
    Качество : WEB-DL 720p
    Контейнер : M4V
    Видео : H.264, 1280x530, 2.40: 1, 4 021 Kbps, 23.976 fps
    Аудио 1 : Русский/Дублированный (iTunes), AAC LC/2.0/160 Kbps/48.0 KHz
    Аудио 2 : Английский/Оригинальная дорожка , AAC LC/2.0/160 Kbps/48.0 KHz
    Аудио 3 : Русский/Дублированный (iTunes), AC-3/5.1/384 Kbps/48.0 KHz
    Аудио 4 : Английский/Дублированный , AC-3/5.1/384 Kbps/48.0 KHz
    Код: выделить все

    Sort Name: The Equalizer 2
    XID: Apple:vendor_id:2018-840294
    contentID: 1406533645
    Copyright: © 2018 Columbia Pictures Industries, Inc. All Rights Reserved.
    Screenwriters: Ричард Уэнк, Майкл Слоун, Ричард Линдхейм
    Producers: Молли Аллен, Тодд Блэк, Дэвид Дж. Блумфилд
    Director: Антуан Фукуа
    Cast: Педро Паскаль, Дензел Вашингтон, Билл Пуллман, Мелисса Лео, Джонатан Скарф, Сакина Джэффри, Кэролайн Дэй, Орсон Бин, Хайди Гарроу, Эштон Сандерс
    Studio: Columbia Pictures
    Rating: 5
    Long Description: Продолжение истории Роберта Маккола, бывшего агента ЦРУ, который самостоятельно вершит правосудие.
    Description: Продолжение истории Роберта Маккола, бывшего агента ЦРУ, который самостоятельно вершит правосудие.
    Release Date: 2018-07-13T07:00:00Z
    Genre: Action Adventure
    Artist: Antoine Fuqua
    Name: The Equalizer 2
    Код: выделить все

    General
    Complete name : /Users/imac/HandBrake/The.Equalizer.2.WEB-DL.720p.m4v
    Format : MPEG-4
    Codec ID : M4V (M4V /M4A /mp42/isom)
    File size : 4.33 GiB
    Duration : 2h 1mn
    Overall bit rate mode : Variable
    Overall bit rate : 5 109 Kbps
    Movie name : The Equalizer 2
    Performer : Antoine Fuqua
    Director : Антуан Фукуа
    Actor : Педро Паскаль/Дензел Вашингтон/Билл Пуллман/Мелисса Лео/Джонатан Скарф/Сакина Джэффри/Кэролайн Дэй/Орсон Бин/Хайди Гарроу/Эштон Сандерс
    Screenplay by : Ричард Уэнк/Майкл Слоун/Ричард Линдхейм
    Producer : Молли Аллен/Тодд Блэк/Дэвид Дж. Блумфилд
    Production studio : Columbia Pictures
    Genre : Action Adventure
    ContentType : Short Film
    Description : Продолжение истории Роберта Маккола, бывшего агента ЦРУ, который самостоятельно вершит правосудие.
    Recorded date : UTC 2018-07-13 07:00:00
    Encoded date : UTC 2018-10-31 13:49:45
    Tagged date : UTC 2018-10-31 13:53:28
    Copyright : © 2018 Columbia Pictures Industries, Inc. All Rights Reserved.
    Cover : Yes
    Rating : None
    Title/Sort : The Equalizer 2
    LongDescription : Продолжение истории Роберта Маккола, бывшего агента ЦРУ, который самостоятельно вершит правосудие.
    HDVideo : Yes
    AppleStoreCatalogID : 1406533645
    Vendor : Apple:vendor_id:2018-840294
    ContentRating : mpaa|R|400|
    Video #1
    ID : 1
    Format : AVC
    Format/Info : Advanced Video Codec
    Format profile :Main@L3.1
    Format settings : 2 Ref Frames
    Format settings, CABAC : No
    Format settings, ReFrames : 2 frames
    Codec ID : avc1
    Codec ID/Info : Advanced Video Coding
    Duration : 2h 1mn
    Bit rate : 4 021 Kbps
    Width : 1 280 pixels
    Height : 530 pixels
    Display aspect ratio : 2.40:1
    Frame rate mode : Variable
    Frame rate : 23.976 fps
    Minimum frame rate : 12.195 fps
    Maximum frame rate : 1 000.000 fps
    Color space : YUV
    Chroma subsampling : 4:2:0
    Bit depth : 8 bits
    Scan type : Progressive
    Bits/(Pixel*Frame) : 0.247
    Stream size : 3.40 GiB (79%)
    Title : Main Program
    Language : English
    Encoded date : UTC 2018-10-31 13:49:45
    Tagged date : UTC 2018-10-31 13:51:22
    Color range : Limited
    Color primaries : BT.709
    Transfer characteristics : BT.709
    Matrix coefficients : BT.709
    Menus : 10, 11
    Codec configuration box : avcC
    Video #2
    ID : 11
    Format : JPEG
    Codec ID : jpeg
    Duration : 2h 1mn
    Bit rate mode : Variable
    Bit rate : 605 bps
    Width : 640 pixels
    Height : 265 pixels
    Display aspect ratio : 2.40:1
    Frame rate mode : Variable
    Frame rate : 0.002 fps
    Minimum frame rate : 0.001 fps
    Maximum frame rate : 0.005 fps
    Color space : YUV
    Chroma subsampling : 4:2:0
    Bit depth : 8 bits
    Compression mode : Lossy
    Bits/(Pixel*Frame) : 1.784
    Stream size : 591 KiB (0%)
    Title : Chapter Images
    Language : English
    Default : No
    Encoded date : UTC 2018-10-31 13:51:26
    Tagged date : UTC 2018-10-31 13:51:26
    Menu For : 1
    ColorSpace_ICC : RGB
    Audio #1
    ID : 2
    Format : AAC LC
    Format/Info : Advanced Audio Codec Low Complexity
    Codec ID : mp4a-40-2
    Duration : 2h 0mn
    Source duration : 2h 0mn
    Bit rate mode : Variable
    Bit rate : 157 Kbps
    Maximum bit rate : 261 Kbps
    Channel(s) : 2 channels
    Channel layout : L R
    Sampling rate : 48.0 KHz
    Frame rate : 46.875 fps (1024 SPF)
    Compression mode : Lossy
    Stream size : 136 MiB (3%)
    Source stream size : 136 MiB (3%)
    Title : Russian Stereo
    Language : Russian
    Default : Yes
    Alternate group : 1
    Encoded date : UTC 2018-10-31 13:49:45
    Tagged date : UTC 2018-10-31 13:49:55
    Fallback From : 4
    Subtitles : 6, 7
    Audio #2
    ID : 3
    Format : AAC LC
    Format/Info : Advanced Audio Codec Low Complexity
    Codec ID : mp4a-40-2
    Duration : 2h 0mn
    Source duration : 2h 0mn
    Bit rate mode : Variable
    Bit rate : 155 Kbps
    Maximum bit rate : 261 Kbps
    Channel(s) : 2 channels
    Channel layout : L R
    Sampling rate : 48.0 KHz
    Frame rate : 46.875 fps (1024 SPF)
    Compression mode : Lossy
    Stream size : 134 MiB (3%)
    Source stream size : 134 MiB (3%)
    Title : English Stereo
    Language : English
    Default : No
    Alternate group : 1
    Encoded date : UTC 2018-10-31 13:49:45
    Tagged date : UTC 2018-10-31 13:49:55
    Fallback From : 5
    Audio #3
    ID : 4
    Format : AC-3
    Format/Info : Audio Coding 3
    Commercial name : Dolby Digital
    Codec ID : ac-3
    Duration : 2h 0mn
    Bit rate mode : Constant
    Bit rate : 384 Kbps
    Channel(s) : 6 channels
    Channel layout : L R C LFE Ls Rs
    Sampling rate : 48.0 KHz
    Frame rate : 31.250 fps (1536 SPF)
    Bit depth : 16 bits
    Compression mode : Lossy
    Stream size : 332 MiB (7%)
    Title : Russian DD 5.1
    Language : Russian
    Service kind : Complete Main
    Default : Inherited From: 2
    Alternate group : 1
    Encoded date : UTC 2018-10-31 13:49:45
    Tagged date : UTC 2018-10-31 13:49:55
    Fallback To : 2
    Subtitles : 6, 7
    Audio #4
    ID : 5
    Format : AC-3
    Format/Info : Audio Coding 3
    Commercial name : Dolby Digital
    Codec ID : ac-3
    Duration : 2h 0mn
    Bit rate mode : Constant
    Bit rate : 384 Kbps
    Channel(s) : 6 channels
    Channel layout : L R C LFE Ls Rs
    Sampling rate : 48.0 KHz
    Frame rate : 31.250 fps (1536 SPF)
    Bit depth : 16 bits
    Compression mode : Lossy
    Stream size : 332 MiB (7%)
    Title : English DD 5.1
    Language : English
    Service kind : Complete Main
    Default : No
    Alternate group : 1
    Encoded date : UTC 2018-10-31 13:49:45
    Tagged date : UTC 2018-10-31 13:49:55
    Fallback To : 3
    Text #1
    ID : 6
    Format : Timed Text
    Muxing mode : sbtl
    Codec ID : tx3g
    Duration : 2h 0mn
    Bit rate mode : Variable
    Bit rate : 2 bps
    Stream size : 1.69 KiB (0%)
    Title : Russian forced
    Language : Russian
    Default : Yes
    Forced : Yes
    Alternate group : 2
    Encoded date : UTC 2018-10-31 13:49:45
    Tagged date : UTC 2018-10-31 13:49:55
    Subtitles For : 2, 4
    Full Alternative : 7
    Text #2
    ID : 7
    Format : Timed Text
    Muxing mode : sbtl
    Codec ID : tx3g
    Duration : 2h 0mn
    Bit rate mode : Variable
    Bit rate : 63 bps
    Stream size : 55.4 KiB (0%)
    Title : Russian full
    Language : Russian
    Default : No
    Forced : No
    Alternate group : 2
    Encoded date : UTC 2018-10-31 13:49:45
    Tagged date : UTC 2018-10-31 13:49:55
    Subtitles For : 2, 4
    Forced Alternative : 6
    Text #3
    ID : 8
    Format : Timed Text
    Muxing mode : sbtl
    Codec ID : tx3g
    Duration : 1h 54mn
    Bit rate mode : Variable
    Bit rate : 47 bps
    Stream size : 39.8 KiB (0%)
    Title : English full
    Language : English
    Default : No
    Forced : No
    Alternate group : 2
    Encoded date : UTC 2018-10-31 13:49:45
    Tagged date : UTC 2018-10-31 13:49:55
    Text #4
    ID : 9
    Format : Timed Text
    Muxing mode : sbtl
    Codec ID : tx3g
    Duration : 2h 0mn
    Bit rate mode : Variable
    Bit rate : 61 bps
    Stream size : 53.8 KiB (0%)
    Title : Ukrainian full
    Language : Ukrainian
    Default : No
    Forced : No
    Alternate group : 2
    Encoded date : UTC 2018-10-31 13:49:45
    Tagged date : UTC 2018-10-31 13:49:55
    Menu #1
    00:00:00.000 : 1
    00:06:49.034 : 2
    00:13:21.634 : 3
    00:16:42.459 : 4
    00:27:09.919 : 5
    00:34:04.458 : 6
    00:41:04.543 : 7
    00:47:07.613 : 8
    00:54:16.333 : 9
    01:02:16.813 : 10
    01:11:17.727 : 11
    01:18:38.125 : 12
    01:25:18.942 : 13
    01:31:39.238 : 14
    01:40:09.330 : 15
    01:52:13.720 : 16
    Menu #2
    ID : 10
    Codec ID : text
    Duration : 2h 1mn
    Language : English
    Encoded date : UTC 2018-10-31 13:51:22
    Tagged date : UTC 2018-10-31 13:51:22
    Menu For : 1
    00:00:00.000 : 1
    00:06:49.034 : 2
    00:13:21.634 : 3
    00:16:42.459 : 4
    00:27:09.919 : 5
    00:34:04.458 : 6
    00:41:04.543 : 7
    00:47:07.613 : 8
    00:54:16.333 : 9
    01:02:16.813 : 10
    01:11:17.727 : 11
    01:18:38.125 : 12
    01:25:18.942 : 13
    01:31:39.238 : 14
    01:40:09.330 : 15
    01:52:13.720 : 16
    Bit rate mode : VBR
    Скриншоты :


    Все одноименные релизы в Клубе


    Релиз подготовлен для просмотра наApple TV, iPad, iPhone, iPod Touch.
    Для просмотра данного релиза на компьютере с ОС Windows рекомендуется использоватьVLC media player


    Великий уравнитель 2/The Equalizer 2 (2018) WEB-DL [720p] ATV
    Рейтинг →
     (голосов: 1, оценка 5/5, голосовать можно 1 раз )

    Другие торренты по теме:

  • Великий уравнитель 2 / The Equalizer 2 (2018) UHD BDRemux [H.265 / 2160p] [4K, HDR, 10-bit]
  • Великий уравнитель / The Equalizer (2014) WEBRip [1080p] [Трейлер]
  • Великий уравнитель / The Equalizer (2014) WEBRip [H.264 / 720p-LQ] [Трейлер]
  • Великий уравнитель / The Equalizer (2014) CamRip скачать через торрент бесплатно
  • Великий уравнитель / The Equalizer (2014) CamRip скачать через торрент бесплатно
  • Великий уравнитель / The Equalizer (2014) HDRip [звук с TS] скачать через торрент бесплатно
  • Великий уравнитель / The Equalizer (2014) HDRip [Line]
  • Великий уравнитель / The Equalizer (2014) HDRip [Line]


    • Комментарии (0):

      Информация

      Информация

        Посетители, находящиеся в группе Гости, не могут оставлять комментарии в данной новости.

        ↓ Меню




        ↓ Опрос

        Вы добавили сайт в закладки?
        Да
        Нет


        Top 10 за месяц (Программы)