.
Авторизация | Регистрация
Хочешь лучшие торренты? Добавь свой email!
Добавить

Торрент скачать бесплатно

  • support: webmaster@btracker.club
» » Святые из Бундока / The Boondock Saints (1999) BDRip [1080p] ATV торрент скачать бесплатно


    Святые из Бундока / The Boondock Saints (1999) BDRip [1080p] ATV торрент скачать бесплатно

    Опубликовал: fregat | Дата: 1-11-2018, 05:00 | .torrent скачали: 0

    Святые из Бундока / The Boondock Saints (1999) BDRip [1080p] ATVПроизводство: США, Канада/B.D.S. Productions Inc., Brood Syndicate, CB Productions, Chris Brinker Productions, Franchise Pictures, Fried Films
    Жанр: Боевик, Триллер, Драма, Комедия, Криминал
    Режиссер: Трой Даффи
    Продюсер: Крис Бринкер, Эли Самаха, Ллойд Сеган
    Актеры: Уиллем Дэфо, Шон Пэтрик Флэнери, Норман Ридус, Дэвид Делла Рокко, Билли Коннолли

    Описание

    Чего только не бывает на свете! Два обычных ирландских парня, братья Коннор и Мерфи, преспокойно жили и работали в своем родном Бостоне, пока в один прекрасный день на них не снизошло озарение: сам Бог послал их на землю с особой миссией, наделив святой силой, чтобы очистить мир от зла. И братья взялись за дело со всей серьезность, присущей ирландцам. Вскоре местную мафию охватывает настоящая паника — ведь методы святых не отличаются особой гуманностью, зато оказались очень эффективными — кровь полилась рекой. Массовый отстрел мафиози не смог не привлечь внимания ФБР. Спецагент Пол Смекер, ведущий расследование, попадает в непростую ситуацию: служебный долг требует пресечь деятельность святых братьев, однако в душе он не только сочувствует им, но даже готов присоединится к исполнителям священной миссии.

    Возраст: 18+ (зрителям, достигшим 18 лет. запрещено для детей)
    Рейтинг MPAA: R (лицам до 17 лет обязательно присутствие взрослого)
    Продолжительность: 01: 48: 26
    Качество видео: BDRip 1080р
    Перевод: Профессиональный многоголосый, Авторский одноголосый
    В озвучке Гоблина присутствует ненормативная лексика в необходимом и достаточном количестве!
    Субтитры: Русские (вшитые, отключаемые), Английские (вшитые, отключаемые)
    Видео : H.264, 1920x814 (2.35: 1), ~8255 kbps, 23.976 fps
    Аудио#1 : AAC, 2.0 ch, 192 Kbps - Русский MVO, Tycoon Studio
    Аудио#2 : AAC, 2.0 ch, 192 Kbps - Русский MVO, Total DVD
    Аудио#3 : AAC, 2.0 ch, 186 Kbps - Русский MVO, R5 (Союз)
    Аудио#4 : AAC, 2.0 ch, 192 Kbps - Русский AVO, Д. Пучков aka Гоблин
    Аудио#5 : AAC, 2.0 ch, 196 Kbps - English Original
    Аудио#6 : AC3, 6.0 ch, 448 Kbps - Русский MVO, Tycoon Studio
    Аудио#7 : AC3, 6.0 ch, 448 Kbps - Русский MVO, Total DVD
    Аудио#8 : AC3, 6.0 ch, 448 Kbps - Русский MVO, R5 (Союз)
    Аудио#9 : AC3, 6.0 ch, 448 Kbps - Русский AVO, Д. Пучков aka Гоблин
    Аудио#10 : AC3, 6.0 ch, 448 Kbps - English, Original
    Код: выделить все

    Общее
    Полное имя : /Users/NNMC/The.Boondock.Saints.1999.BDRip.1080p.m4v
    Формат : MPEG-4
    Идентификатор кодека : M4V (M4V /M4A /mp42/isom)
    Размер файла : 8, 69 Гбайт
    Продолжительность : 1 ч. 48 м.
    Режим общего битрейта : Переменный
    Общий поток : 11, 5 Мбит/сек
    Название фильма : Святые из Бундока
    Исполнитель : Troy Duffy
    Композитор : Jeff Danna
    Режиссёр : Troy Duffy
    Исполнитель : Willem Dafoe/Norman Reedus/Sean Patrick Flanery/David Della Rocco/David Ferry/Brian Mahoney/Billy Connolly/Carlo Rota/Ron Jeremy/Bob Marley/Richard Fitzpatrick/Robert Pemberton/Dot Jones/Markus Parilo/Jeffrey R. Smith
    Сценарист : Troy Duffy
    Продюсер : Chris Brinker/Robert N. Fried/Elie Samaha/Lloyd Segan
    Исполнительный продюсер : Ashok Amritraj, Andrew Stevens
    Студия-производитель : Franchise Pictures, Brood Syndicate, B.D.S. Productions Inc., 20th Century Fox
    Жанр : боевик, триллер, криминал
    Тип содержимого : Short Film
    Дата записи : UTC 1999-01-22 00:00:00
    Дата кодирования : UTC 2018-10-31 14:12:25
    Дата пометки : UTC 2018-10-31 14:35:57
    Обложка : Yes
    LongDescription : Чего только не бывает на свете! Два обычных ирландских парня, братья Коннор и Мерфи, преспокойно жили и работали в своем родном Бостоне, пока в один прекрасный день на них не снизошло озарение: сам Бог послал их на землю с особой миссией, наделив святой силой, чтобы очистить мир от зла. И братья взялись за дело со всей серьезностью, присущей ирландцам…
    ContentRating : mpaa|R|400|
    Видео
    Идентификатор : 1
    Формат : AVC
    Формат/Информация : Advanced Video Codec
    Профиль формата :High@L4.1
    Настройки формата : CABAC/5 Ref Frames
    Параметр CABAC формата : Да
    Параметр ReFrames формата : 5 кадров
    Идентификатор кодека : avc1
    Идентификатор кодека/Информация : Advanced Video Coding
    Продолжительность : 1 ч. 48 м.
    Битрейт : 8255 Кбит/сек
    Ширина : 1920 пикселей
    Высота : 814 пикселей
    Соотношение сторон : 2, 35:1
    Режим частоты кадров : Переменный
    Частота кадров : 23, 976 (24000/1001) кадра/сек
    Минимальная частота кадров : 23, 810 кадра/сек
    Максимальная частота кадров : 24, 390 кадра/сек
    Цветовое пространство : YUV
    Субдискретизация насыщенности : 4:2:0
    Битовая глубина : 8 бит
    Тип развёртки : Прогрессивная
    Бит/(Пиксели*Кадры) : 0.220
    Размер потока : 6, 25 Гбайт (72%)
    Библиотека кодирования : x264 core 135 r2345 f0c1c53
    Настройки программы : cabac=1/ref=5/deblock=1:-3:-3/analyse=0x3:0x133/me=umh/subme=11/psy=1/psy_rd=1.00:0.00/mixed_ref=1/me_range=32/chroma_me=1/trellis=2/8x8dct=1/cqm=0/deadzone=21, 11/fast_pskip=0/chroma_qp_offset=-2/threads=12/lookahead_threads=1/sliced_threads=0/nr=0/decimate=0/interlaced=0/bluray_compat=0/constrained_intra=0/bframes=6/b_pyramid=2/b_adapt=2/b_bias=0/direct=3/weightb=1/open_gop=0/weightp=2/keyint=240/keyint_min=23/scenecut=40/intra_refresh=0/rc=2pass/mbtree=0/bitrate=8255/ratetol=1.0/qcomp=0.60/qpmin=0/qpmax=69/qpstep=4/cplxblur=20.0/qblur=0.5/ip_ratio=1.40/pb_ratio=1.30/aq=1:0.70
    Язык : English
    Дата кодирования : UTC 2018-10-31 14:12:25
    Дата пометки : UTC 2018-10-31 14:35:57
    Codec configuration box : avcC
    Аудио #1
    Идентификатор : 2
    Формат : AAC LC
    Формат/Информация : Advanced Audio Codec Low Complexity
    Идентификатор кодека : mp4a-40-2
    Продолжительность : 1 ч. 48 м.
    Вид битрейта : Переменный
    Битрейт : 192 Кбит/сек
    Максимальный битрейт : 313 Кбит/сек
    Каналы : 2 канала
    Channel layout : L R
    Частота : 48, 0 КГц
    Частота кадров : 46, 875 кадров/сек (1024 SPF)
    Метод сжатия : С потерями
    Размер потока : 149 Мбайт (2%)
    Язык : Russian
    Default : Да
    Alternate group : 1
    Дата кодирования : UTC 2018-10-31 14:12:26
    Дата пометки : UTC 2018-10-31 14:35:57
    Fallback From : 8
    tagc : public.auxiliary-content
    Аудио #2
    Идентификатор : 3
    Формат : AAC LC
    Формат/Информация : Advanced Audio Codec Low Complexity
    Идентификатор кодека : mp4a-40-2
    Продолжительность : 1 ч. 48 м.
    Вид битрейта : Переменный
    Битрейт : 192 Кбит/сек
    Максимальный битрейт : 301 Кбит/сек
    Каналы : 2 канала
    Channel layout : L R
    Частота : 48, 0 КГц
    Частота кадров : 46, 875 кадров/сек (1024 SPF)
    Метод сжатия : С потерями
    Размер потока : 149 Мбайт (2%)
    Язык : Russian
    Default : Нет
    Alternate group : 1
    Дата кодирования : UTC 2018-10-31 14:12:26
    Дата пометки : UTC 2018-10-31 14:35:57
    Fallback From : 9
    tagc : public.auxiliary-content
    Аудио #3
    Идентификатор : 4
    Формат : AAC LC
    Формат/Информация : Advanced Audio Codec Low Complexity
    Идентификатор кодека : mp4a-40-2
    Продолжительность : 1 ч. 48 м.
    Вид битрейта : Переменный
    Битрейт : 186 Кбит/сек
    Максимальный битрейт : 263 Кбит/сек
    Каналы : 2 канала
    Channel layout : L R
    Частота : 48, 0 КГц
    Частота кадров : 46, 875 кадров/сек (1024 SPF)
    Метод сжатия : С потерями
    Размер потока : 144 Мбайт (2%)
    Язык : Russian
    Default : Нет
    Alternate group : 1
    Дата кодирования : UTC 2018-10-31 14:12:26
    Дата пометки : UTC 2018-10-31 14:35:57
    Fallback From : 10
    tagc : public.auxiliary-content
    Аудио #4
    Идентификатор : 5
    Формат : AAC LC
    Формат/Информация : Advanced Audio Codec Low Complexity
    Идентификатор кодека : mp4a-40-2
    Продолжительность : 1 ч. 48 м.
    Вид битрейта : Переменный
    Битрейт : 192 Кбит/сек
    Максимальный битрейт : 293 Кбит/сек
    Каналы : 2 канала
    Channel layout : L R
    Частота : 48, 0 КГц
    Частота кадров : 46, 875 кадров/сек (1024 SPF)
    Метод сжатия : С потерями
    Размер потока : 151 Мбайт (2%)
    Язык : Russian
    Default : Нет
    Alternate group : 1
    Дата кодирования : UTC 2018-10-31 14:12:26
    Дата пометки : UTC 2018-10-31 14:35:57
    Fallback From : 7
    tagc : public.main-program-content
    Аудио #5
    Идентификатор : 6
    Формат : AAC LC
    Формат/Информация : Advanced Audio Codec Low Complexity
    Идентификатор кодека : mp4a-40-2
    Продолжительность : 1 ч. 48 м.
    Вид битрейта : Переменный
    Битрейт : 196 Кбит/сек
    Максимальный битрейт : 290 Кбит/сек
    Каналы : 2 канала
    Channel layout : L R
    Частота : 48, 0 КГц
    Частота кадров : 46, 875 кадров/сек (1024 SPF)
    Метод сжатия : С потерями
    Размер потока : 152 Мбайт (2%)
    Язык : English
    Default : Нет
    Alternate group : 1
    Дата кодирования : UTC 2018-10-31 14:12:26
    Дата пометки : UTC 2018-10-31 14:35:57
    Fallback From : 11
    tagc : public.main-program-content
    Аудио #6
    Идентификатор : 7
    Формат : AC-3
    Формат/Информация : Audio Coding 3
    Коммерческое название : Dolby Digital
    Идентификатор кодека : ac-3
    Продолжительность : 1 ч. 48 м.
    Вид битрейта : Постоянный
    Битрейт : 448 Кбит/сек
    Каналы : 6 каналов
    Channel layout : L R C LFE Ls Rs
    Частота : 48, 0 КГц
    Частота кадров : 31, 250 кадров/сек (1536 SPF)
    Битовая глубина : 16 бит
    Метод сжатия : С потерями
    Размер потока : 348 Мбайт (4%)
    Язык : Russian
    Service kind : Complete Main
    Default : Нет
    Alternate group : 1
    Дата кодирования : UTC 2018-10-31 14:12:26
    Дата пометки : UTC 2018-10-31 14:35:57
    Fallback To : 5
    tagc : public.main-program-content
    Аудио #7
    Идентификатор : 8
    Формат : AC-3
    Формат/Информация : Audio Coding 3
    Коммерческое название : Dolby Digital
    Идентификатор кодека : ac-3
    Продолжительность : 1 ч. 48 м.
    Вид битрейта : Постоянный
    Битрейт : 448 Кбит/сек
    Каналы : 6 каналов
    Channel layout : L R C LFE Ls Rs
    Частота : 48, 0 КГц
    Частота кадров : 31, 250 кадров/сек (1536 SPF)
    Битовая глубина : 16 бит
    Метод сжатия : С потерями
    Размер потока : 348 Мбайт (4%)
    Язык : Russian
    Service kind : Complete Main
    Default : Inherited From: 2
    Alternate group : 1
    Дата кодирования : UTC 2018-10-31 14:12:26
    Дата пометки : UTC 2018-10-31 14:35:57
    Fallback To : 2
    tagc : public.auxiliary-content
    Аудио #8
    Идентификатор : 9
    Формат : AC-3
    Формат/Информация : Audio Coding 3
    Коммерческое название : Dolby Digital
    Идентификатор кодека : ac-3
    Продолжительность : 1 ч. 48 м.
    Вид битрейта : Постоянный
    Битрейт : 448 Кбит/сек
    Каналы : 6 каналов
    Channel layout : L R C LFE Ls Rs
    Частота : 48, 0 КГц
    Частота кадров : 31, 250 кадров/сек (1536 SPF)
    Битовая глубина : 16 бит
    Метод сжатия : С потерями
    Размер потока : 348 Мбайт (4%)
    Язык : Russian
    Service kind : Complete Main
    Default : Нет
    Alternate group : 1
    Дата кодирования : UTC 2018-10-31 14:12:26
    Дата пометки : UTC 2018-10-31 14:35:57
    Fallback To : 3
    tagc : public.auxiliary-content
    Аудио #9
    Идентификатор : 10
    Формат : AC-3
    Формат/Информация : Audio Coding 3
    Коммерческое название : Dolby Digital
    Идентификатор кодека : ac-3
    Продолжительность : 1 ч. 48 м.
    Вид битрейта : Постоянный
    Битрейт : 448 Кбит/сек
    Каналы : 6 каналов
    Channel layout : L R C LFE Ls Rs
    Частота : 48, 0 КГц
    Частота кадров : 31, 250 кадров/сек (1536 SPF)
    Битовая глубина : 16 бит
    Метод сжатия : С потерями
    Размер потока : 347 Мбайт (4%)
    Язык : Russian
    Service kind : Complete Main
    Default : Нет
    Alternate group : 1
    Дата кодирования : UTC 2018-10-31 14:12:26
    Дата пометки : UTC 2018-10-31 14:35:57
    Fallback To : 4
    tagc : public.auxiliary-content
    Аудио #10
    Идентификатор : 11
    Формат : AC-3
    Формат/Информация : Audio Coding 3
    Коммерческое название : Dolby Digital
    Идентификатор кодека : ac-3
    Продолжительность : 1 ч. 48 м.
    Вид битрейта : Постоянный
    Битрейт : 448 Кбит/сек
    Каналы : 6 каналов
    Channel layout : L R C LFE Ls Rs
    Частота : 48, 0 КГц
    Частота кадров : 31, 250 кадров/сек (1536 SPF)
    Битовая глубина : 16 бит
    Метод сжатия : С потерями
    Размер потока : 348 Мбайт (4%)
    Язык : English
    Service kind : Complete Main
    Default : Нет
    Alternate group : 1
    Дата кодирования : UTC 2018-10-31 14:12:26
    Дата пометки : UTC 2018-10-31 14:35:57
    Fallback To : 6
    tagc : public.main-program-content
    Текст #1
    Идентификатор : 12
    Формат : Timed Text
    Режим смешивания : sbtl
    Идентификатор кодека : tx3g
    Продолжительность : 1 ч. 45 м.
    Вид битрейта : Переменный
    Битрейт : 110 бит/сек
    Размер потока : 85, 2 Кбайт (0%)
    Язык : Russian
    Default : Да
    Forced : Нет
    Alternate group : 2
    Дата кодирования : UTC 2018-10-31 14:12:26
    Дата пометки : UTC 2018-10-31 14:35:57
    tagc : public.main-program-content
    Текст #2
    Идентификатор : 13
    Формат : Timed Text
    Режим смешивания : sbtl
    Идентификатор кодека : tx3g
    Продолжительность : 1 ч. 45 м.
    Вид битрейта : Переменный
    Битрейт : 87 бит/сек
    Размер потока : 67, 0 Кбайт (0%)
    Язык : English
    Default : Нет
    Forced : Нет
    Alternate group : 2
    Дата кодирования : UTC 2018-10-31 14:12:26
    Дата пометки : UTC 2018-10-31 14:35:57
    tagc : public.main-program-content



    Святые из Бундока/The Boondock Saints (1999) BDRip [1080p] ATV
    Рейтинг →
     (голосов: 1, оценка 3/5, голосовать можно 1 раз )

    Другие торренты по теме:

  • Святые из трущоб (Святые из Бундока) / The Boondock Saints (1999) BDRip [H.264 / 1080p] скачать через торрент бесплатно
  • Святые из бундока 2: День всех святых / The Boondock Saints II: All Saints Day (2009) BDRip [H.265 / 1080p-LQ]
  • Святые из Бундока / The Boondock Saints (1999) BDRip [H.265 / 1080p-LQ] [MVO]


    • Комментарии (0):

      Информация

      Информация

        Посетители, находящиеся в группе Гости, не могут оставлять комментарии в данной новости.

        ↓ Меню




        ↓ Опрос

        Вы добавили сайт в закладки?
        Да
        Нет


        Top 10 за месяц (Программы)